<?xml version="1.0" standalone="no"?>
<!DOCTYPE svg PUBLIC "-//W3C//DTD SVG 1.1//EN" "http://www.w3.org/Graphics/SVG/1.1/DTD/svg11.dtd" >
<svg xmlns="http://www.w3.org/2000/svg" xmlns:xlink="http://www.w3.org/1999/xlink" version="1.1">
<metadata>
Created by FontForge 20170910 at Thu Sep 11 19:27:18 2008
 By Jimmy Wärting
Copyright (C) 2001, 2008 Hoefler &#38; Frere-Jones. http://www.typography.com
</metadata>
<defs>
<font id="Gotham-Light" horiz-adv-x="400" >
  <font-face 
    font-family="Gotham Light"
    font-weight="300"
    font-stretch="normal"
    units-per-em="1000"
    panose-1="0 0 0 0 0 0 0 0 0 0"
    ascent="800"
    descent="-200"
    x-height="510"
    cap-height="700"
    bbox="-210 -225 1145 986"
    underline-thickness="50"
    underline-position="-100"
    stemh="47"
    stemv="52"
    unicode-range="U+0020-FB04"
  />
<missing-glyph horiz-adv-x="500" 
d="M0 -200v1000h500v-1000h-500zM71 750l179 -390l179 390h-358zM50 -76l172 376l-172 376v-752zM450 676l-172 -376l172 -376v752zM250 240l-179 -390h358z" />
    <glyph glyph-name="f_f" unicode="ff" horiz-adv-x="724" 
d="M485 0v465h-74v45h74v50c0 58 16 104 45 133c26 26 62 40 107 40c31 0 53 -4 76 -12v-46c-29 9 -50 13 -76 13c-70 0 -103 -42 -103 -129v-49h178v-45h-178v-465h-49zM123 0v465h-74v45h74v50c0 58 16 104 45 133c26 26 62 40 107 40c31 0 53 -4 76 -12v-46
c-29 9 -50 13 -76 13c-70 0 -103 -42 -103 -129v-49h178v-45h-178v-465h-49z" />
    <glyph glyph-name="fi" unicode="fi" horiz-adv-x="611" 
d="M123 0v465h-74v45h74v50c0 58 16 104 45 133c26 26 62 40 107 40c31 0 53 -4 76 -12v-46c-29 9 -50 13 -76 13c-70 0 -103 -42 -103 -129v-49h178v-45h-178v-465h-49zM462 0v510h49v-510h-49zM456 643v67h61v-67h-61z" />
    <glyph glyph-name="fl" unicode="fl" horiz-adv-x="611" 
d="M123 0v465h-74v45h74v50c0 58 16 104 45 133c26 26 62 40 107 40c31 0 53 -4 76 -12v-46c-29 9 -50 13 -76 13c-70 0 -103 -42 -103 -129v-49h178v-45h-178v-465h-49zM462 0v730h49v-730h-49z" />
    <glyph glyph-name="f_f_i" unicode="ffi" horiz-adv-x="973" 
d="M485 0v465h-74v45h74v50c0 58 16 104 45 133c26 26 62 40 107 40c31 0 53 -4 76 -12v-46c-29 9 -50 13 -76 13c-70 0 -103 -42 -103 -129v-49h178v-45h-178v-465h-49zM123 0v465h-74v45h74v50c0 58 16 104 45 133c26 26 62 40 107 40c31 0 53 -4 76 -12v-46
c-29 9 -50 13 -76 13c-70 0 -103 -42 -103 -129v-49h178v-45h-178v-465h-49zM824 0v510h49v-510h-49zM818 643v67h61v-67h-61z" />
    <glyph glyph-name="f_f_l" unicode="ffl" horiz-adv-x="973" 
d="M485 0v465h-74v45h74v50c0 58 16 104 45 133c26 26 62 40 107 40c31 0 53 -4 76 -12v-46c-29 9 -50 13 -76 13c-70 0 -103 -42 -103 -129v-49h178v-45h-178v-465h-49zM123 0v465h-74v45h74v50c0 58 16 104 45 133c26 26 62 40 107 40c31 0 53 -4 76 -12v-46
c-29 9 -50 13 -76 13c-70 0 -103 -42 -103 -129v-49h178v-45h-178v-465h-49zM824 0v730h49v-730h-49z" />
    <glyph glyph-name=".notdef" horiz-adv-x="500" 
d="M0 -200v1000h500v-1000h-500zM71 750l179 -390l179 390h-358zM50 -76l172 376l-172 376v-752zM450 676l-172 -376l172 -376v752zM250 240l-179 -390h358z" />
    <glyph glyph-name="A" unicode="A" horiz-adv-x="790" 
d="M44 0l326 705h50l326 -705h-57l-89 196h-413l-89 -196h-54zM209 243h369l-184 405z" />
    <glyph glyph-name="B" unicode="B" horiz-adv-x="722" 
d="M104 0v700h289c79 0 143 -23 182 -62c29 -29 45 -66 45 -110v-2c0 -95 -62 -143 -119 -166c84 -22 158 -70 158 -167v-2c0 -117 -100 -191 -251 -191h-304zM567 521v2c0 77 -63 129 -175 129h-236v-275h231c105 0 180 51 180 144zM606 193c0 86 -75 136 -213 136h-237
v-281h254c120 0 196 55 196 143v2z" />
    <glyph glyph-name="C" unicode="C" horiz-adv-x="738" 
d="M421 -12c-200 0 -348 159 -348 360v2c0 198 148 362 350 362c125 0 200 -46 272 -112l-37 -38c-61 59 -131 103 -236 103c-168 0 -295 -137 -295 -313v-2c0 -177 129 -315 296 -315c101 0 170 39 241 109l35 -34c-74 -73 -154 -122 -278 -122z" />
    <glyph glyph-name="D" unicode="D" horiz-adv-x="782" 
d="M104 0v700h233c220 0 372 -151 372 -348v-2c0 -197 -152 -350 -372 -350h-233zM337 652h-181v-604h181c195 0 318 133 318 300v2c0 166 -123 302 -318 302z" />
    <glyph glyph-name="E" unicode="E" horiz-adv-x="670" 
d="M104 0v700h498v-48h-446v-275h401v-48h-401v-281h451v-48h-503z" />
    <glyph glyph-name="F" unicode="F" horiz-adv-x="656" 
d="M104 0v700h493v-48h-441v-287h396v-48h-396v-317h-52z" />
    <glyph glyph-name="G" unicode="G" horiz-adv-x="784" 
d="M425 -12c-221 0 -352 163 -352 360v2c0 189 137 362 346 362c114 0 186 -34 256 -92l-34 -39c-55 48 -119 84 -225 84c-170 0 -289 -144 -289 -313v-2c0 -181 113 -316 300 -316c89 0 172 37 223 80v201h-234v48h284v-270c-63 -56 -161 -105 -275 -105z" />
    <glyph glyph-name="H" unicode="H" horiz-adv-x="760" 
d="M104 0v700h52v-324h448v324h52v-700h-52v328h-448v-328h-52z" />
    <glyph glyph-name="I" unicode="I" horiz-adv-x="274" 
d="M111 0v700h52v-700h-52z" />
    <glyph glyph-name="J" unicode="J" horiz-adv-x="549" 
d="M249 -10c-104 0 -169 54 -212 131l43 27c43 -73 90 -111 172 -111c86 0 152 65 152 187v476h52v-472c0 -81 -25 -143 -64 -182c-37 -37 -87 -56 -143 -56z" />
    <glyph glyph-name="K" unicode="K" horiz-adv-x="715" 
d="M104 0v700h52v-460l446 460h71l-306 -309l319 -391h-68l-288 354l-174 -176v-178h-52z" />
    <glyph glyph-name="L" unicode="L" horiz-adv-x="619" 
d="M104 0v700h52v-652h411v-48h-463z" />
    <glyph glyph-name="M" unicode="M" horiz-adv-x="868" 
d="M104 0v700h49l281 -414l281 414h49v-700h-52v608l-277 -403h-4l-277 403v-608h-50z" />
    <glyph glyph-name="N" unicode="N" horiz-adv-x="790" 
d="M104 0v700h49l483 -609v609h50v-700h-39l-493 622v-622h-50z" />
    <glyph glyph-name="O" unicode="O" horiz-adv-x="850" 
d="M424 -12c-212 0 -351 169 -351 360v2c0 191 141 362 353 362s351 -169 351 -360v-2c0 -191 -141 -362 -353 -362zM426 35c173 0 297 140 297 313v2c0 173 -126 315 -299 315s-297 -140 -297 -313v-2c0 -173 126 -315 299 -315z" />
    <glyph glyph-name="P" unicode="P" horiz-adv-x="668" 
d="M104 0v700h254c154 0 260 -79 260 -214v-2c0 -147 -127 -223 -273 -223h-189v-261h-52zM156 309h192c130 0 218 68 218 172v2c0 111 -86 169 -212 169h-198v-343z" />
    <glyph glyph-name="Q" unicode="Q" horiz-adv-x="850" 
d="M785 19l-37 -40l-99 89c-59 -50 -136 -80 -225 -80c-212 0 -351 169 -351 360v2c0 191 141 362 353 362s351 -169 351 -360v-2c0 -93 -33 -181 -92 -247zM426 35c72 0 136 24 186 66l-136 116l37 41l134 -122c48 55 76 130 76 212v2c0 173 -126 315 -299 315
s-297 -140 -297 -313v-2c0 -173 126 -315 299 -315z" />
    <glyph glyph-name="Q.alt" horiz-adv-x="850" 
d="M737 -101l-143 131c-49 -27 -106 -42 -170 -42c-212 0 -351 169 -351 360v2c0 191 141 362 353 362s351 -169 351 -360v-2c0 -114 -50 -221 -135 -288l171 -160v-3h-76zM426 35c173 0 297 140 297 313v2c0 173 -126 315 -299 315s-297 -140 -297 -313v-2
c0 -173 126 -315 299 -315z" />
    <glyph glyph-name="R" unicode="R" horiz-adv-x="723" 
d="M104 0v700h294c86 0 155 -27 197 -69c33 -33 53 -80 53 -130v-2c0 -117 -87 -184 -205 -200l231 -299h-66l-223 290h-229v-290h-52zM156 337h236c117 0 204 59 204 160v2c0 94 -74 153 -201 153h-239v-315z" />
    <glyph glyph-name="S" unicode="S" horiz-adv-x="640" 
d="M341 -10c-112 0 -198 37 -282 112l34 39c77 -71 148 -104 251 -104c105 0 177 59 177 139v2c0 74 -39 117 -198 149c-168 34 -236 91 -236 197v2c0 104 95 184 225 184c102 0 169 -28 240 -85l-33 -41c-66 57 -132 79 -209 79c-103 0 -171 -59 -171 -132v-2
c0 -74 38 -119 204 -153c162 -33 230 -91 230 -193v-2c0 -113 -97 -191 -232 -191z" />
    <glyph glyph-name="T" unicode="T" horiz-adv-x="648" 
d="M298 0v652h-244v48h540v-48h-244v-652h-52z" />
    <glyph glyph-name="U" unicode="U" horiz-adv-x="760" 
d="M380 -11c-168 0 -287 106 -287 302v409h52v-404c0 -165 89 -260 237 -260c142 0 233 86 233 255v409h52v-403c0 -201 -117 -308 -287 -308z" />
    <glyph glyph-name="V" unicode="V" horiz-adv-x="750" 
d="M352 -5l-308 705h58l274 -644l275 644h55l-308 -705h-46z" />
    <glyph glyph-name="W" unicode="W" horiz-adv-x="1102" 
d="M304 -5l-254 705h58l220 -623l205 625h40l205 -625l220 623h54l-254 -705h-42l-205 608l-205 -608h-42z" />
    <glyph glyph-name="X" unicode="X" horiz-adv-x="722" 
d="M600 700h61l-269 -343l279 -357h-62l-249 323l-248 -323h-61l278 357l-268 343h62l239 -309z" />
    <glyph glyph-name="Y" unicode="Y" horiz-adv-x="716" 
d="M332 0v277l-300 423h65l262 -376l263 376h62l-300 -422v-278h-52z" />
    <glyph glyph-name="Z" unicode="Z" horiz-adv-x="688" 
d="M68 0v29l479 624h-462v47h536v-29l-479 -624h479v-47h-553z" />
    <glyph glyph-name="a" unicode="a" horiz-adv-x="574" 
d="M248 -12c-95 0 -197 54 -197 160v2c0 106 91 166 223 166c71 0 120 -9 169 -22v22c0 103 -63 156 -168 156c-62 0 -113 -17 -160 -41l-18 43c56 26 111 44 181 44c69 0 124 -19 161 -56c34 -34 52 -81 52 -144v-318h-48v85c-35 -49 -98 -97 -195 -97zM251 34
c104 0 193 64 193 157v58c-43 11 -100 23 -173 23c-108 0 -168 -48 -168 -119v-2c0 -74 70 -117 148 -117z" />
    <glyph glyph-name="a.alt" horiz-adv-x="660" 
d="M308 -12c-123 0 -248 99 -248 265v2c0 166 125 267 248 267c102 0 168 -58 210 -122v110h49v-510h-49v114c-44 -67 -109 -126 -210 -126zM313 35c106 0 208 89 208 219v2c0 131 -102 219 -208 219c-111 0 -200 -81 -200 -218v-2c0 -134 93 -220 200 -220z" />
    <glyph glyph-name="b" unicode="b" horiz-adv-x="660" 
d="M352 -12c-102 0 -168 58 -210 122v-110h-49v730h49v-334c44 67 109 126 210 126c123 0 248 -99 248 -265v-2c0 -166 -125 -267 -248 -267zM347 35c111 0 200 81 200 218v2c0 134 -93 220 -200 220c-106 0 -208 -89 -208 -219v-2c0 -131 102 -219 208 -219z" />
    <glyph glyph-name="c" unicode="c" horiz-adv-x="571" 
d="M318 -12c-147 0 -260 122 -260 265v2c0 143 114 267 260 267c96 0 156 -44 204 -94l-35 -36c-44 45 -94 84 -170 84c-116 0 -206 -97 -206 -219v-2c0 -123 93 -221 210 -221c72 0 128 37 171 85l34 -30c-52 -59 -114 -101 -208 -101z" />
    <glyph glyph-name="d" unicode="d" horiz-adv-x="660" 
d="M308 -12c-123 0 -248 99 -248 265v2c0 166 125 267 248 267c102 0 168 -58 210 -122v330h49v-730h-49v114c-44 -67 -109 -126 -210 -126zM313 35c106 0 208 89 208 219v2c0 131 -102 219 -208 219c-111 0 -200 -81 -200 -218v-2c0 -134 93 -220 200 -220z" />
    <glyph glyph-name="e" unicode="e" horiz-adv-x="584" 
d="M308 -12c-134 0 -250 107 -250 266v2c0 148 104 266 242 266c143 0 234 -116 234 -267c0 -9 0 -12 -1 -20h-423c9 -127 100 -201 200 -201c79 0 133 35 175 80l34 -30c-52 -56 -113 -96 -211 -96zM110 279h371c-7 103 -66 198 -183 198c-101 0 -179 -85 -188 -198z" />
    <glyph glyph-name="f" unicode="f" horiz-adv-x="362" 
d="M123 0v465h-74v45h74v50c0 58 16 104 45 133c26 26 62 40 107 40c31 0 53 -4 76 -12v-46c-29 9 -50 13 -76 13c-70 0 -103 -42 -103 -129v-49h178v-45h-178v-465h-49z" />
    <glyph glyph-name="g" unicode="g" horiz-adv-x="660" 
d="M317 -162c-85 0 -164 26 -234 78l29 40c61 -47 131 -72 206 -72c117 0 200 67 200 198v74c-44 -63 -112 -118 -213 -118c-123 0 -245 94 -245 240v2c0 147 122 242 245 242c102 0 171 -54 213 -114v102h49v-431c0 -74 -24 -132 -65 -173c-44 -44 -110 -68 -185 -68z
M310 85c106 0 211 78 211 194v2c0 118 -105 194 -211 194c-107 0 -197 -74 -197 -193v-2c0 -115 92 -195 197 -195z" />
    <glyph glyph-name="h" unicode="h" horiz-adv-x="613" 
d="M93 0v730h49v-315c34 60 91 107 184 107c129 0 204 -88 204 -210v-312h-49v303c0 105 -59 174 -162 174c-100 0 -177 -76 -177 -182v-295h-49z" />
    <glyph glyph-name="i" unicode="i" horiz-adv-x="249" 
d="M94 643v67h61v-67h-61zM100 0v510h49v-510h-49z" />
    <glyph glyph-name="j" unicode="j" horiz-adv-x="249" 
d="M94 643v67h61v-67h-61zM40 -163c-14 0 -26 1 -41 4v43c12 -2 29 -3 40 -3c36 0 61 23 61 71v558h49v-555c0 -80 -43 -118 -109 -118z" />
    <glyph glyph-name="k" unicode="k" horiz-adv-x="560" 
d="M93 0v730h49v-547l316 327h65l-223 -226l230 -284h-62l-202 249l-124 -125v-124h-49z" />
    <glyph glyph-name="l" unicode="l" horiz-adv-x="249" 
d="M100 0v730h49v-730h-49z" />
    <glyph glyph-name="m" unicode="m" horiz-adv-x="951" 
d="M93 0v510h49v-91c33 53 79 103 170 103c89 0 144 -51 172 -110c33 57 88 110 184 110c121 0 196 -85 196 -213v-309h-49v303c0 110 -57 174 -151 174c-86 0 -161 -66 -161 -180v-297h-49v306c0 106 -58 171 -149 171s-163 -80 -163 -183v-294h-49z" />
    <glyph glyph-name="n" unicode="n" horiz-adv-x="613" 
d="M93 0v510h49v-95c34 60 91 107 184 107c129 0 204 -88 204 -210v-312h-49v303c0 105 -59 174 -162 174c-100 0 -177 -76 -177 -182v-295h-49z" />
    <glyph glyph-name="o" unicode="o" horiz-adv-x="640" 
d="M319 -12c-151 0 -261 122 -261 265v2c0 143 111 267 263 267c151 0 261 -122 261 -265v-2c0 -143 -111 -267 -263 -267zM321 34c121 0 208 99 208 219v2c0 123 -92 221 -210 221c-121 0 -208 -99 -208 -219v-2c0 -123 92 -221 210 -221z" />
    <glyph glyph-name="p" unicode="p" horiz-adv-x="660" 
d="M93 -160v670h49v-114c44 67 109 126 210 126c123 0 248 -99 248 -265v-2c0 -166 -125 -267 -248 -267c-102 0 -168 58 -210 122v-270h-49zM347 35c111 0 200 81 200 218v2c0 134 -93 220 -200 220c-106 0 -208 -89 -208 -219v-2c0 -131 102 -219 208 -219z" />
    <glyph glyph-name="q" unicode="q" horiz-adv-x="660" 
d="M518 -160v274c-44 -67 -109 -126 -210 -126c-123 0 -248 99 -248 265v2c0 166 125 267 248 267c102 0 168 -58 210 -122v110h49v-670h-49zM313 35c106 0 208 89 208 219v2c0 131 -102 219 -208 219c-111 0 -200 -81 -200 -218v-2c0 -134 93 -220 200 -220z" />
    <glyph glyph-name="r" unicode="r" 
d="M93 0v510h49v-145c40 91 125 157 226 153v-54h-5c-118 0 -221 -89 -221 -255v-209h-49z" />
    <glyph glyph-name="s" unicode="s" horiz-adv-x="497" 
d="M258 -10c-74 0 -155 30 -209 74l29 39c56 -43 118 -67 183 -67c69 0 123 38 123 97v2c0 60 -64 82 -135 102c-83 24 -175 49 -175 140v2c0 82 69 141 168 141c61 0 130 -22 181 -56l-26 -41c-47 31 -103 51 -157 51c-70 0 -116 -38 -116 -89v-2c0 -57 69 -78 142 -99
c82 -23 168 -53 168 -143v-2c0 -91 -78 -149 -176 -149z" />
    <glyph glyph-name="t" unicode="t" 
d="M263 -9c-79 0 -143 43 -143 140v334h-74v45h74v163h49v-163h179v-45h-179v-329c0 -73 43 -99 102 -99c25 0 46 5 75 18v-46c-26 -12 -51 -18 -83 -18z" />
    <glyph glyph-name="u" unicode="u" horiz-adv-x="613" 
d="M287 -12c-129 0 -204 88 -204 210v312h49v-303c0 -105 59 -174 162 -174c100 0 177 76 177 182v295h49v-510h-49v95c-34 -60 -91 -107 -184 -107z" />
    <glyph glyph-name="v" unicode="v" horiz-adv-x="582" 
d="M270 -4l-229 514h57l193 -455l195 455h55l-229 -514h-42z" />
    <glyph glyph-name="w" unicode="w" horiz-adv-x="861" 
d="M236 -4l-187 514h55l154 -448l154 450h39l154 -450l154 448h53l-187 -514h-42l-152 437l-153 -437h-42z" />
    <glyph glyph-name="x" unicode="x" horiz-adv-x="570" 
d="M114 510l171 -216l173 216h59l-201 -249l209 -261h-61l-180 227l-180 -227h-59l208 260l-200 250h61z" />
    <glyph glyph-name="y" unicode="y" horiz-adv-x="588" 
d="M308 54l184 456h54l-221 -528c-45 -107 -97 -145 -170 -145c-39 0 -67 7 -101 22l17 43c27 -13 49 -19 87 -19c53 0 88 31 126 120l-245 507h57z" />
    <glyph glyph-name="z" unicode="z" horiz-adv-x="554" 
d="M58 0v28l368 438h-354v44h427v-28l-368 -438h368v-44h-441z" />
    <glyph glyph-name="Aacute" unicode="&#xc1;" horiz-adv-x="790" 
d="M44 0l326 705h50l326 -705h-57l-89 196h-413l-89 -196h-54zM209 243h369l-184 405zM374 775l93 118l59 -28l-107 -90h-45z" />
    <glyph glyph-name="aacute" unicode="&#xe1;" horiz-adv-x="574" 
d="M248 -12c-95 0 -197 54 -197 160v2c0 106 91 166 223 166c71 0 120 -9 169 -22v22c0 103 -63 156 -168 156c-62 0 -113 -17 -160 -41l-18 43c56 26 111 44 181 44c69 0 124 -19 161 -56c34 -34 52 -81 52 -144v-318h-48v85c-35 -49 -98 -97 -195 -97zM251 34
c104 0 193 64 193 157v58c-43 11 -100 23 -173 23c-108 0 -168 -48 -168 -119v-2c0 -74 70 -117 148 -117zM266 595l88 133l61 -30l-107 -103h-42z" />
    <glyph glyph-name="aacute.alt" horiz-adv-x="660" 
d="M308 -12c-123 0 -248 99 -248 265v2c0 166 125 267 248 267c102 0 168 -58 210 -122v110h49v-510h-49v114c-44 -67 -109 -126 -210 -126zM313 35c106 0 208 89 208 219v2c0 131 -102 219 -208 219c-111 0 -200 -81 -200 -218v-2c0 -134 93 -220 200 -220zM311 595l88 133
l61 -30l-107 -103h-42z" />
    <glyph glyph-name="Abreve" unicode="&#x102;" horiz-adv-x="790" 
d="M44 0l326 705h50l326 -705h-57l-89 196h-413l-89 -196h-54zM209 243h369l-184 405zM395 773c-74 0 -128 37 -133 100h44c11 -32 40 -52 89 -52s78 20 89 52h44c-5 -63 -59 -100 -133 -100z" />
    <glyph glyph-name="abreve" unicode="&#x103;" horiz-adv-x="574" 
d="M248 -12c-95 0 -197 54 -197 160v2c0 106 91 166 223 166c71 0 120 -9 169 -22v22c0 103 -63 156 -168 156c-62 0 -113 -17 -160 -41l-18 43c56 26 111 44 181 44c69 0 124 -19 161 -56c34 -34 52 -81 52 -144v-318h-48v85c-35 -49 -98 -97 -195 -97zM251 34
c104 0 193 64 193 157v58c-43 11 -100 23 -173 23c-108 0 -168 -48 -168 -119v-2c0 -74 70 -117 148 -117zM287 593c-74 0 -128 42 -133 112h39c12 -37 42 -64 94 -64s82 27 94 64h39c-5 -70 -59 -112 -133 -112z" />
    <glyph glyph-name="abreve.alt" horiz-adv-x="660" 
d="M308 -12c-123 0 -248 99 -248 265v2c0 166 125 267 248 267c102 0 168 -58 210 -122v110h49v-510h-49v114c-44 -67 -109 -126 -210 -126zM313 35c106 0 208 89 208 219v2c0 131 -102 219 -208 219c-111 0 -200 -81 -200 -218v-2c0 -134 93 -220 200 -220zM332 593
c-74 0 -128 42 -133 112h39c12 -37 42 -64 94 -64s82 27 94 64h39c-5 -70 -59 -112 -133 -112z" />
    <glyph glyph-name="Acircumflex" unicode="&#xc2;" horiz-adv-x="790" 
d="M44 0l326 705h50l326 -705h-57l-89 196h-413l-89 -196h-54zM209 243h369l-184 405zM269 775l103 107h46l103 -107h-54l-73 61l-73 -61h-52z" />
    <glyph glyph-name="acircumflex" unicode="&#xe2;" horiz-adv-x="574" 
d="M248 -12c-95 0 -197 54 -197 160v2c0 106 91 166 223 166c71 0 120 -9 169 -22v22c0 103 -63 156 -168 156c-62 0 -113 -17 -160 -41l-18 43c56 26 111 44 181 44c69 0 124 -19 161 -56c34 -34 52 -81 52 -144v-318h-48v85c-35 -49 -98 -97 -195 -97zM251 34
c104 0 193 64 193 157v58c-43 11 -100 23 -173 23c-108 0 -168 -48 -168 -119v-2c0 -74 70 -117 148 -117zM167 595l100 122h40l100 -122h-47l-74 68l-74 -68h-45z" />
    <glyph glyph-name="acircumflex.alt" horiz-adv-x="660" 
d="M308 -12c-123 0 -248 99 -248 265v2c0 166 125 267 248 267c102 0 168 -58 210 -122v110h49v-510h-49v114c-44 -67 -109 -126 -210 -126zM313 35c106 0 208 89 208 219v2c0 131 -102 219 -208 219c-111 0 -200 -81 -200 -218v-2c0 -134 93 -220 200 -220zM212 595
l100 122h40l100 -122h-47l-74 68l-74 -68h-45z" />
    <glyph glyph-name="Adieresis" unicode="&#xc4;" horiz-adv-x="790" 
d="M44 0l326 705h50l326 -705h-57l-89 196h-413l-89 -196h-54zM209 243h369l-184 405zM447 775v76h73v-76h-73zM271 775v76h74v-76h-74z" />
    <glyph glyph-name="adieresis" unicode="&#xe4;" horiz-adv-x="574" 
d="M248 -12c-95 0 -197 54 -197 160v2c0 106 91 166 223 166c71 0 120 -9 169 -22v22c0 103 -63 156 -168 156c-62 0 -113 -17 -160 -41l-18 43c56 26 111 44 181 44c69 0 124 -19 161 -56c34 -34 52 -81 52 -144v-318h-48v85c-35 -49 -98 -97 -195 -97zM251 34
c104 0 193 64 193 157v58c-43 11 -100 23 -173 23c-108 0 -168 -48 -168 -119v-2c0 -74 70 -117 148 -117zM334 595v80h69v-80h-69zM171 595v80h69v-80h-69z" />
    <glyph glyph-name="adieresis.alt" horiz-adv-x="660" 
d="M308 -12c-123 0 -248 99 -248 265v2c0 166 125 267 248 267c102 0 168 -58 210 -122v110h49v-510h-49v114c-44 -67 -109 -126 -210 -126zM313 35c106 0 208 89 208 219v2c0 131 -102 219 -208 219c-111 0 -200 -81 -200 -218v-2c0 -134 93 -220 200 -220zM379 595v80h69
v-80h-69zM216 595v80h69v-80h-69z" />
    <glyph glyph-name="AE" unicode="&#xc6;" horiz-adv-x="1045" 
d="M20 0l424 700h533v-48h-431v-275h386v-48h-386v-281h436v-48h-488v196h-300l-118 -196h-56zM222 243h272v410h-26z" />
    <glyph glyph-name="ae" unicode="&#xe6;" horiz-adv-x="954" 
d="M243 -12c-94 0 -192 54 -192 160v2c0 106 90 166 218 166c66 0 111 -9 160 -22v22c0 103 -59 156 -161 156c-60 0 -106 -17 -153 -41l-18 43c57 27 106 44 174 44c101 0 170 -43 193 -128c40 79 116 132 206 132c143 0 234 -116 234 -267c0 -9 0 -12 -1 -20h-423
c9 -127 100 -201 200 -201c79 0 133 35 175 80l34 -30c-52 -56 -113 -96 -211 -96c-84 0 -161 42 -206 112c-53 -61 -128 -112 -229 -112zM480 279h371c-7 103 -66 198 -183 198c-101 0 -179 -85 -188 -198zM246 34c87 0 155 46 204 107c-13 33 -21 69 -22 109
c-43 10 -97 22 -162 22c-105 0 -163 -48 -163 -119v-2c0 -74 65 -117 143 -117z" />
    <glyph glyph-name="AEacute" unicode="&#x1fc;" horiz-adv-x="1045" 
d="M20 0l424 700h533v-48h-431v-275h386v-48h-386v-281h436v-48h-488v196h-300l-118 -196h-56zM222 243h272v410h-26zM613 765l93 118l59 -28l-107 -90h-45z" />
    <glyph glyph-name="aeacute" unicode="&#x1fd;" horiz-adv-x="954" 
d="M243 -12c-94 0 -192 54 -192 160v2c0 106 90 166 218 166c66 0 111 -9 160 -22v22c0 103 -59 156 -161 156c-60 0 -106 -17 -153 -41l-18 43c57 27 106 44 174 44c101 0 170 -43 193 -128c40 79 116 132 206 132c143 0 234 -116 234 -267c0 -9 0 -12 -1 -20h-423
c9 -127 100 -201 200 -201c79 0 133 35 175 80l34 -30c-52 -56 -113 -96 -211 -96c-84 0 -161 42 -206 112c-53 -61 -128 -112 -229 -112zM480 279h371c-7 103 -66 198 -183 198c-101 0 -179 -85 -188 -198zM246 34c87 0 155 46 204 107c-13 33 -21 69 -22 109
c-43 10 -97 22 -162 22c-105 0 -163 -48 -163 -119v-2c0 -74 65 -117 143 -117zM456 595l88 133l61 -30l-107 -103h-42z" />
    <glyph glyph-name="Agrave" unicode="&#xc0;" horiz-adv-x="790" 
d="M44 0l326 705h50l326 -705h-57l-89 196h-413l-89 -196h-54zM209 243h369l-184 405zM416 775h-45l-107 90l59 28z" />
    <glyph glyph-name="agrave" unicode="&#xe0;" horiz-adv-x="574" 
d="M248 -12c-95 0 -197 54 -197 160v2c0 106 91 166 223 166c71 0 120 -9 169 -22v22c0 103 -63 156 -168 156c-62 0 -113 -17 -160 -41l-18 43c56 26 111 44 181 44c69 0 124 -19 161 -56c34 -34 52 -81 52 -144v-318h-48v85c-35 -49 -98 -97 -195 -97zM251 34
c104 0 193 64 193 157v58c-43 11 -100 23 -173 23c-108 0 -168 -48 -168 -119v-2c0 -74 70 -117 148 -117zM266 595l-107 103l61 30l88 -133h-42z" />
    <glyph glyph-name="agrave.alt" horiz-adv-x="660" 
d="M308 -12c-123 0 -248 99 -248 265v2c0 166 125 267 248 267c102 0 168 -58 210 -122v110h49v-510h-49v114c-44 -67 -109 -126 -210 -126zM313 35c106 0 208 89 208 219v2c0 131 -102 219 -208 219c-111 0 -200 -81 -200 -218v-2c0 -134 93 -220 200 -220zM311 595
l-107 103l61 30l88 -133h-42z" />
    <glyph glyph-name="Amacron" unicode="&#x100;" horiz-adv-x="790" 
d="M44 0l326 705h50l326 -705h-57l-89 196h-413l-89 -196h-54zM209 243h369l-184 405zM240 801v49h310v-49h-310z" />
    <glyph glyph-name="amacron" unicode="&#x101;" horiz-adv-x="574" 
d="M248 -12c-95 0 -197 54 -197 160v2c0 106 91 166 223 166c71 0 120 -9 169 -22v22c0 103 -63 156 -168 156c-62 0 -113 -17 -160 -41l-18 43c56 26 111 44 181 44c69 0 124 -19 161 -56c34 -34 52 -81 52 -144v-318h-48v85c-35 -49 -98 -97 -195 -97zM251 34
c104 0 193 64 193 157v58c-43 11 -100 23 -173 23c-108 0 -168 -48 -168 -119v-2c0 -74 70 -117 148 -117zM140 621v47h294v-47h-294z" />
    <glyph glyph-name="amacron.alt" horiz-adv-x="660" 
d="M308 -12c-123 0 -248 99 -248 265v2c0 166 125 267 248 267c102 0 168 -58 210 -122v110h49v-510h-49v114c-44 -67 -109 -126 -210 -126zM313 35c106 0 208 89 208 219v2c0 131 -102 219 -208 219c-111 0 -200 -81 -200 -218v-2c0 -134 93 -220 200 -220zM185 621v47h294
v-47h-294z" />
    <glyph glyph-name="Aogonek" unicode="&#x104;" horiz-adv-x="790" 
d="M755 -128v-36c-83 3 -126 33 -126 79c0 34 20 60 57 90l-86 191h-413l-89 -196h-54l326 705h50l326 -705h-11c-39 -31 -56 -51 -56 -79s20 -44 76 -49zM209 243h369l-184 405z" />
    <glyph glyph-name="aogonek" unicode="&#x105;" horiz-adv-x="574" 
d="M507 -128v-36c-83 3 -126 33 -126 79c0 35 22 63 62 94v76c-35 -49 -98 -97 -195 -97c-95 0 -197 54 -197 160v2c0 106 91 166 223 166c71 0 120 -9 169 -22v22c0 103 -63 156 -168 156c-62 0 -113 -17 -160 -41l-18 43c56 26 111 44 181 44c69 0 124 -19 161 -56
c34 -34 52 -81 52 -144v-318h-4c-39 -31 -56 -51 -56 -79s20 -44 76 -49zM251 34c104 0 193 64 193 157v58c-43 11 -100 23 -173 23c-108 0 -168 -48 -168 -119v-2c0 -74 70 -117 148 -117z" />
    <glyph glyph-name="aogonek.alt" horiz-adv-x="660" 
d="M583 -128v-36c-83 3 -126 33 -126 79c0 35 21 62 61 93v106c-44 -67 -109 -126 -210 -126c-123 0 -248 99 -248 265v2c0 166 125 267 248 267c102 0 168 -58 210 -122v110h49v-510h-4c-39 -31 -56 -51 -56 -79s20 -44 76 -49zM313 35c106 0 208 89 208 219v2
c0 131 -102 219 -208 219c-111 0 -200 -81 -200 -218v-2c0 -134 93 -220 200 -220z" />
    <glyph glyph-name="Aring" unicode="&#xc5;" horiz-adv-x="790" 
d="M44 0l307 666c-37 14 -62 47 -62 87c0 54 48 95 106 95s106 -41 106 -95c0 -40 -26 -73 -63 -87l308 -666h-57l-89 196h-413l-89 -196h-54zM209 243h369l-184 405zM395 690c38 0 68 27 68 63s-30 63 -68 63s-68 -27 -68 -63s30 -63 68 -63z" />
    <glyph glyph-name="aring" unicode="&#xe5;" horiz-adv-x="574" 
d="M248 -12c-95 0 -197 54 -197 160v2c0 106 91 166 223 166c71 0 120 -9 169 -22v22c0 103 -63 156 -168 156c-62 0 -113 -17 -160 -41l-18 43c56 26 111 44 181 44c69 0 124 -19 161 -56c34 -34 52 -81 52 -144v-318h-48v85c-35 -49 -98 -97 -195 -97zM251 34
c104 0 193 64 193 157v58c-43 11 -100 23 -173 23c-108 0 -168 -48 -168 -119v-2c0 -74 70 -117 148 -117zM287 593c-57 0 -104 45 -104 100s47 100 104 100s104 -45 104 -100s-47 -100 -104 -100zM287 623c38 0 70 32 70 70s-32 70 -70 70s-70 -32 -70 -70s32 -70 70 -70z
" />
    <glyph glyph-name="aring.alt" horiz-adv-x="660" 
d="M308 -12c-123 0 -248 99 -248 265v2c0 166 125 267 248 267c102 0 168 -58 210 -122v110h49v-510h-49v114c-44 -67 -109 -126 -210 -126zM313 35c106 0 208 89 208 219v2c0 131 -102 219 -208 219c-111 0 -200 -81 -200 -218v-2c0 -134 93 -220 200 -220zM332 593
c-57 0 -104 45 -104 100s47 100 104 100s104 -45 104 -100s-47 -100 -104 -100zM332 623c38 0 70 32 70 70s-32 70 -70 70s-70 -32 -70 -70s32 -70 70 -70z" />
    <glyph glyph-name="aring.alt2" horiz-adv-x="574" 
d="M248 -12c-95 0 -197 54 -197 160v2c0 106 91 166 223 166c71 0 120 -9 169 -22v22c0 103 -63 156 -168 156c-62 0 -113 -17 -160 -41l-18 43c40 18 79 33 124 40c-23 17 -38 43 -38 74c0 55 47 100 104 100s104 -45 104 -100c0 -33 -17 -61 -43 -78c37 -8 67 -25 91 -48
c34 -34 52 -81 52 -144v-318h-48v85c-35 -49 -98 -97 -195 -97zM251 34c104 0 193 64 193 157v58c-43 11 -100 23 -173 23c-108 0 -168 -48 -168 -119v-2c0 -74 70 -117 148 -117zM217 588c0 -38 32 -70 70 -70s70 32 70 70s-32 70 -70 70s-70 -32 -70 -70z" />
    <glyph glyph-name="Aringacute" unicode="&#x1fa;" horiz-adv-x="790" 
d="M44 0l307 666c-37 14 -62 47 -62 87c0 54 48 95 106 95s106 -41 106 -95c0 -40 -26 -73 -63 -87l308 -666h-57l-89 196h-413l-89 -196h-54zM209 243h369l-184 405zM395 690c38 0 68 27 68 63s-30 63 -68 63s-68 -27 -68 -63s30 -63 68 -63zM371 878l93 108l57 -28
l-105 -80h-45z" />
    <glyph glyph-name="aringacute" unicode="&#x1fb;" horiz-adv-x="574" 
d="M265 820l89 118l59 -30l-104 -88h-44zM248 -12c-95 0 -197 54 -197 160v2c0 106 91 166 223 166c71 0 120 -9 169 -22v22c0 103 -63 156 -168 156c-62 0 -113 -17 -160 -41l-18 43c56 26 111 44 181 44c69 0 124 -19 161 -56c34 -34 52 -81 52 -144v-318h-48v85
c-35 -49 -98 -97 -195 -97zM251 34c104 0 193 64 193 157v58c-43 11 -100 23 -173 23c-108 0 -168 -48 -168 -119v-2c0 -74 70 -117 148 -117zM287 593c-57 0 -104 45 -104 100s47 100 104 100s104 -45 104 -100s-47 -100 -104 -100zM287 623c38 0 70 32 70 70
s-32 70 -70 70s-70 -32 -70 -70s32 -70 70 -70z" />
    <glyph glyph-name="aringacute.alt" horiz-adv-x="660" 
d="M310 820l89 118l59 -30l-104 -88h-44zM308 -12c-123 0 -248 99 -248 265v2c0 166 125 267 248 267c102 0 168 -58 210 -122v110h49v-510h-49v114c-44 -67 -109 -126 -210 -126zM313 35c106 0 208 89 208 219v2c0 131 -102 219 -208 219c-111 0 -200 -81 -200 -218v-2
c0 -134 93 -220 200 -220zM332 593c-57 0 -104 45 -104 100s47 100 104 100s104 -45 104 -100s-47 -100 -104 -100zM332 623c38 0 70 32 70 70s-32 70 -70 70s-70 -32 -70 -70s32 -70 70 -70z" />
    <glyph glyph-name="aringacute.alt2" horiz-adv-x="574" 
d="M265 724l89 118l59 -30l-104 -88h-44zM248 -12c-95 0 -197 54 -197 160v2c0 106 91 166 223 166c71 0 120 -9 169 -22v22c0 103 -63 156 -168 156c-62 0 -113 -17 -160 -41l-18 43c40 18 79 33 124 40c-23 17 -38 43 -38 74c0 55 47 100 104 100s104 -45 104 -100
c0 -33 -17 -61 -43 -78c37 -8 67 -25 91 -48c34 -34 52 -81 52 -144v-318h-48v85c-35 -49 -98 -97 -195 -97zM251 34c104 0 193 64 193 157v58c-43 11 -100 23 -173 23c-108 0 -168 -48 -168 -119v-2c0 -74 70 -117 148 -117zM217 588c0 -38 32 -70 70 -70s70 32 70 70
s-32 70 -70 70s-70 -32 -70 -70z" />
    <glyph glyph-name="Atilde" unicode="&#xc3;" horiz-adv-x="790" 
d="M44 0l326 705h50l326 -705h-57l-89 196h-413l-89 -196h-54zM209 243h369l-184 405zM463 775c-20 0 -44 10 -70 21c-19 8 -41 17 -56 17c-24 0 -35 -12 -50 -47l-37 10c19 64 44 88 82 88c20 0 44 -10 70 -21c19 -8 41 -17 56 -17c24 0 35 12 50 46l37 -10
c-19 -64 -44 -87 -82 -87z" />
    <glyph glyph-name="atilde" unicode="&#xe3;" horiz-adv-x="574" 
d="M248 -12c-95 0 -197 54 -197 160v2c0 106 91 166 223 166c71 0 120 -9 169 -22v22c0 103 -63 156 -168 156c-62 0 -113 -17 -160 -41l-18 43c56 26 111 44 181 44c69 0 124 -19 161 -56c34 -34 52 -81 52 -144v-318h-48v85c-35 -49 -98 -97 -195 -97zM251 34
c104 0 193 64 193 157v58c-43 11 -100 23 -173 23c-108 0 -168 -48 -168 -119v-2c0 -74 70 -117 148 -117zM354 595c-19 0 -40 9 -65 20c-22 10 -46 21 -63 21c-24 0 -35 -12 -50 -50l-34 9c19 72 44 93 84 93c19 0 40 -9 65 -20c22 -10 46 -21 63 -21c24 0 35 12 50 50
l34 -9c-19 -72 -44 -93 -84 -93z" />
    <glyph glyph-name="atilde.alt" horiz-adv-x="660" 
d="M308 -12c-123 0 -248 99 -248 265v2c0 166 125 267 248 267c102 0 168 -58 210 -122v110h49v-510h-49v114c-44 -67 -109 -126 -210 -126zM313 35c106 0 208 89 208 219v2c0 131 -102 219 -208 219c-111 0 -200 -81 -200 -218v-2c0 -134 93 -220 200 -220zM399 595
c-19 0 -40 9 -65 20c-22 10 -46 21 -63 21c-24 0 -35 -12 -50 -50l-34 9c19 72 44 93 84 93c19 0 40 -9 65 -20c22 -10 46 -21 63 -21c24 0 35 12 50 50l34 -9c-19 -72 -44 -93 -84 -93z" />
    <glyph glyph-name="Cacute" unicode="&#x106;" horiz-adv-x="738" 
d="M421 -12c-200 0 -348 159 -348 360v2c0 198 148 362 350 362c125 0 200 -46 272 -112l-37 -38c-61 59 -131 103 -236 103c-168 0 -295 -137 -295 -313v-2c0 -177 129 -315 296 -315c101 0 170 39 241 109l35 -34c-74 -73 -154 -122 -278 -122zM397 775l93 118l59 -28
l-107 -90h-45z" />
    <glyph glyph-name="cacute" unicode="&#x107;" horiz-adv-x="571" 
d="M318 -12c-147 0 -260 122 -260 265v2c0 143 114 267 260 267c96 0 156 -44 204 -94l-35 -36c-44 45 -94 84 -170 84c-116 0 -206 -97 -206 -219v-2c0 -123 93 -221 210 -221c72 0 128 37 171 85l34 -30c-52 -59 -114 -101 -208 -101zM292 595l88 133l61 -30l-107 -103
h-42z" />
    <glyph glyph-name="Ccaron" unicode="&#x10c;" horiz-adv-x="738" 
d="M421 -12c-200 0 -348 159 -348 360v2c0 198 148 362 350 362c125 0 200 -46 272 -112l-37 -38c-61 59 -131 103 -236 103c-168 0 -295 -137 -295 -313v-2c0 -177 129 -315 296 -315c101 0 170 39 241 109l35 -34c-74 -73 -154 -122 -278 -122zM544 882l-103 -107h-46
l-103 107h54l73 -61l73 61h52z" />
    <glyph glyph-name="ccaron" unicode="&#x10d;" horiz-adv-x="571" 
d="M318 -12c-147 0 -260 122 -260 265v2c0 143 114 267 260 267c96 0 156 -44 204 -94l-35 -36c-44 45 -94 84 -170 84c-116 0 -206 -97 -206 -219v-2c0 -123 93 -221 210 -221c72 0 128 37 171 85l34 -30c-52 -59 -114 -101 -208 -101zM433 717l-100 -122h-40l-100 122h47
l74 -68l74 68h45z" />
    <glyph glyph-name="Ccedilla" unicode="&#xc7;" horiz-adv-x="738" 
d="M367 -148l-55 26l76 112c-183 16 -315 168 -315 358v2c0 198 148 362 350 362c125 0 200 -46 272 -112l-37 -38c-61 59 -131 103 -236 103c-168 0 -295 -137 -295 -313v-2c0 -177 129 -315 296 -315c101 0 170 39 241 109l35 -34c-72 -71 -149 -118 -265 -122z" />
    <glyph glyph-name="ccedilla" unicode="&#xe7;" horiz-adv-x="571" 
d="M263 -148l-55 26l76 112c-130 17 -226 131 -226 263v2c0 143 114 267 260 267c96 0 156 -44 204 -94l-35 -36c-44 45 -94 84 -170 84c-116 0 -206 -97 -206 -219v-2c0 -123 93 -221 210 -221c72 0 128 37 171 85l34 -30c-50 -57 -109 -97 -196 -101z" />
    <glyph glyph-name="Cdotaccent" unicode="&#x10a;" horiz-adv-x="738" 
d="M421 -12c-200 0 -348 159 -348 360v2c0 198 148 362 350 362c125 0 200 -46 272 -112l-37 -38c-61 59 -131 103 -236 103c-168 0 -295 -137 -295 -313v-2c0 -177 129 -315 296 -315c101 0 170 39 241 109l35 -34c-74 -73 -154 -122 -278 -122zM380 775v76h76v-76h-76z
" />
    <glyph glyph-name="cdotaccent" unicode="&#x10b;" horiz-adv-x="571" 
d="M318 -12c-147 0 -260 122 -260 265v2c0 143 114 267 260 267c96 0 156 -44 204 -94l-35 -36c-44 45 -94 84 -170 84c-116 0 -206 -97 -206 -219v-2c0 -123 93 -221 210 -221c72 0 128 37 171 85l34 -30c-52 -59 -114 -101 -208 -101zM277 595v81h72v-81h-72z" />
    <glyph glyph-name="Dcaron" unicode="&#x10e;" horiz-adv-x="782" 
d="M104 0v700h233c220 0 372 -151 372 -348v-2c0 -197 -152 -350 -372 -350h-233zM337 652h-181v-604h181c195 0 318 133 318 300v2c0 166 -123 302 -318 302zM501 872l-103 -107h-46l-103 107h54l73 -61l73 61h52z" />
    <glyph glyph-name="dcaron" unicode="&#x10f;" horiz-adv-x="660" 
d="M308 -12c-123 0 -248 99 -248 265v2c0 166 125 267 248 267c102 0 168 -58 210 -122v330h49v-730h-49v114c-44 -67 -109 -126 -210 -126zM313 35c106 0 208 89 208 219v2c0 131 -102 219 -208 219c-111 0 -200 -81 -200 -218v-2c0 -134 93 -220 200 -220zM637 581l17 149
h61v-3l-49 -146h-29z" />
    <glyph glyph-name="Dcroat" unicode="&#x110;" horiz-adv-x="812" 
d="M134 0v328h-75v48h75v324h233c220 0 372 -151 372 -348v-2c0 -197 -152 -350 -372 -350h-233zM418 328h-232v-280h181c195 0 318 133 318 300v2c0 166 -123 302 -318 302h-181v-276h232v-48z" />
    <glyph glyph-name="dcroat" unicode="&#x111;" horiz-adv-x="660" 
d="M333 618v45h185v67h49v-67h70v-45h-70v-618h-49v114c-44 -67 -109 -126 -210 -126c-123 0 -248 99 -248 265v2c0 166 125 267 248 267c102 0 168 -58 210 -122v218h-185zM313 35c106 0 208 89 208 219v2c0 131 -102 219 -208 219c-111 0 -200 -81 -200 -218v-2
c0 -134 93 -220 200 -220z" />
    <glyph glyph-name="Eacute" unicode="&#xc9;" horiz-adv-x="670" 
d="M104 0v700h498v-48h-446v-275h401v-48h-401v-281h451v-48h-503zM334 765l93 118l59 -28l-107 -90h-45z" />
    <glyph glyph-name="eacute" unicode="&#xe9;" horiz-adv-x="584" 
d="M308 -12c-134 0 -250 107 -250 266v2c0 148 104 266 242 266c143 0 234 -116 234 -267c0 -9 0 -12 -1 -20h-423c9 -127 100 -201 200 -201c79 0 133 35 175 80l34 -30c-52 -56 -113 -96 -211 -96zM110 279h371c-7 103 -66 198 -183 198c-101 0 -179 -85 -188 -198z
M279 595l88 133l61 -30l-107 -103h-42z" />
    <glyph glyph-name="Ebreve" unicode="&#x114;" horiz-adv-x="670" 
d="M104 0v700h498v-48h-446v-275h401v-48h-401v-281h451v-48h-503zM355 763c-74 0 -128 37 -133 100h44c11 -32 40 -52 89 -52s78 20 89 52h44c-5 -63 -59 -100 -133 -100z" />
    <glyph glyph-name="ebreve" unicode="&#x115;" horiz-adv-x="584" 
d="M308 -12c-134 0 -250 107 -250 266v2c0 148 104 266 242 266c143 0 234 -116 234 -267c0 -9 0 -12 -1 -20h-423c9 -127 100 -201 200 -201c79 0 133 35 175 80l34 -30c-52 -56 -113 -96 -211 -96zM110 279h371c-7 103 -66 198 -183 198c-101 0 -179 -85 -188 -198z
M300 593c-74 0 -128 42 -133 112h39c12 -37 42 -64 94 -64s82 27 94 64h39c-5 -70 -59 -112 -133 -112z" />
    <glyph glyph-name="Ecaron" unicode="&#x11a;" horiz-adv-x="670" 
d="M104 0v700h498v-48h-446v-275h401v-48h-401v-281h451v-48h-503zM481 872l-103 -107h-46l-103 107h54l73 -61l73 61h52z" />
    <glyph glyph-name="ecaron" unicode="&#x11b;" horiz-adv-x="584" 
d="M308 -12c-134 0 -250 107 -250 266v2c0 148 104 266 242 266c143 0 234 -116 234 -267c0 -9 0 -12 -1 -20h-423c9 -127 100 -201 200 -201c79 0 133 35 175 80l34 -30c-52 -56 -113 -96 -211 -96zM110 279h371c-7 103 -66 198 -183 198c-101 0 -179 -85 -188 -198z
M420 717l-100 -122h-40l-100 122h47l74 -68l74 68h45z" />
    <glyph glyph-name="Ecircumflex" unicode="&#xca;" horiz-adv-x="670" 
d="M104 0v700h498v-48h-446v-275h401v-48h-401v-281h451v-48h-503zM229 765l103 107h46l103 -107h-54l-73 61l-73 -61h-52z" />
    <glyph glyph-name="ecircumflex" unicode="&#xea;" horiz-adv-x="584" 
d="M308 -12c-134 0 -250 107 -250 266v2c0 148 104 266 242 266c143 0 234 -116 234 -267c0 -9 0 -12 -1 -20h-423c9 -127 100 -201 200 -201c79 0 133 35 175 80l34 -30c-52 -56 -113 -96 -211 -96zM110 279h371c-7 103 -66 198 -183 198c-101 0 -179 -85 -188 -198z
M180 595l100 122h40l100 -122h-47l-74 68l-74 -68h-45z" />
    <glyph glyph-name="Edieresis" unicode="&#xcb;" horiz-adv-x="670" 
d="M104 0v700h498v-48h-446v-275h401v-48h-401v-281h451v-48h-503zM407 765v76h73v-76h-73zM231 765v76h74v-76h-74z" />
    <glyph glyph-name="edieresis" unicode="&#xeb;" horiz-adv-x="584" 
d="M308 -12c-134 0 -250 107 -250 266v2c0 148 104 266 242 266c143 0 234 -116 234 -267c0 -9 0 -12 -1 -20h-423c9 -127 100 -201 200 -201c79 0 133 35 175 80l34 -30c-52 -56 -113 -96 -211 -96zM110 279h371c-7 103 -66 198 -183 198c-101 0 -179 -85 -188 -198z
M347 595v80h69v-80h-69zM184 595v80h69v-80h-69z" />
    <glyph glyph-name="Edotaccent" unicode="&#x116;" horiz-adv-x="670" 
d="M104 0v700h498v-48h-446v-275h401v-48h-401v-281h451v-48h-503zM317 765v76h76v-76h-76z" />
    <glyph glyph-name="edotaccent" unicode="&#x117;" horiz-adv-x="584" 
d="M308 -12c-134 0 -250 107 -250 266v2c0 148 104 266 242 266c143 0 234 -116 234 -267c0 -9 0 -12 -1 -20h-423c9 -127 100 -201 200 -201c79 0 133 35 175 80l34 -30c-52 -56 -113 -96 -211 -96zM110 279h371c-7 103 -66 198 -183 198c-101 0 -179 -85 -188 -198z
M264 595v81h72v-81h-72z" />
    <glyph glyph-name="Egrave" unicode="&#xc8;" horiz-adv-x="670" 
d="M104 0v700h498v-48h-446v-275h401v-48h-401v-281h451v-48h-503zM376 765h-45l-107 90l59 28z" />
    <glyph glyph-name="egrave" unicode="&#xe8;" horiz-adv-x="584" 
d="M308 -12c-134 0 -250 107 -250 266v2c0 148 104 266 242 266c143 0 234 -116 234 -267c0 -9 0 -12 -1 -20h-423c9 -127 100 -201 200 -201c79 0 133 35 175 80l34 -30c-52 -56 -113 -96 -211 -96zM110 279h371c-7 103 -66 198 -183 198c-101 0 -179 -85 -188 -198z
M279 595l-107 103l61 30l88 -133h-42z" />
    <glyph glyph-name="Emacron" unicode="&#x112;" horiz-adv-x="670" 
d="M104 0v700h498v-48h-446v-275h401v-48h-401v-281h451v-48h-503zM200 791v49h310v-49h-310z" />
    <glyph glyph-name="emacron" unicode="&#x113;" horiz-adv-x="584" 
d="M308 -12c-134 0 -250 107 -250 266v2c0 148 104 266 242 266c143 0 234 -116 234 -267c0 -9 0 -12 -1 -20h-423c9 -127 100 -201 200 -201c79 0 133 35 175 80l34 -30c-52 -56 -113 -96 -211 -96zM110 279h371c-7 103 -66 198 -183 198c-101 0 -179 -85 -188 -198z
M153 621v47h294v-47h-294z" />
    <glyph glyph-name="Eogonek" unicode="&#x118;" horiz-adv-x="670" 
d="M104 0v700h498v-48h-446v-275h401v-48h-401v-281h451v-48h-21c-39 -31 -56 -51 -56 -79s20 -44 76 -49v-36c-83 3 -126 33 -126 79c0 32 18 57 51 85h-427z" />
    <glyph glyph-name="eogonek" unicode="&#x119;" horiz-adv-x="584" 
d="M485 114l34 -30c-17 -18 -29 -29 -51 -47c-63 -53 -78 -80 -78 -110c0 -34 21 -49 77 -55v-36c-83 3 -126 32 -126 84c0 28 13 51 38 76c-22 -5 -45 -8 -71 -8c-134 0 -250 107 -250 266v2c0 148 104 266 242 266c143 0 234 -116 234 -267c0 -9 0 -12 -1 -20h-423
c9 -127 100 -201 200 -201c79 0 133 35 175 80zM110 279h371c-7 103 -66 198 -183 198c-101 0 -179 -85 -188 -198z" />
    <glyph glyph-name="Eth" unicode="&#xd0;" horiz-adv-x="812" 
d="M134 0v328h-75v48h75v324h233c220 0 372 -151 372 -348v-2c0 -197 -152 -350 -372 -350h-233zM418 328h-232v-280h181c195 0 318 133 318 300v2c0 166 -123 302 -318 302h-181v-276h232v-48z" />
    <glyph glyph-name="eth" unicode="&#xf0;" horiz-adv-x="639" 
d="M476 697l-88 -44c109 -106 192 -228 192 -372v-2c0 -174 -108 -291 -265 -291c-144 0 -257 121 -257 267v2c0 153 120 253 246 253c92 0 156 -42 200 -86c-28 66 -86 137 -161 206l-110 -55l-22 36l99 49c-27 24 -56 47 -86 70h77c18 -15 37 -31 54 -47l99 50zM320 34
c120 0 207 95 207 220v2c0 120 -89 210 -217 210c-119 0 -199 -91 -199 -212v-2c0 -119 91 -218 209 -218z" />
    <glyph glyph-name="Gbreve" unicode="&#x11e;" horiz-adv-x="784" 
d="M425 -12c-221 0 -352 163 -352 360v2c0 189 137 362 346 362c114 0 186 -34 256 -92l-34 -39c-55 48 -119 84 -225 84c-170 0 -289 -144 -289 -313v-2c0 -181 113 -316 300 -316c89 0 172 37 223 80v201h-234v48h284v-270c-63 -56 -161 -105 -275 -105zM412 773
c-74 0 -128 37 -133 100h44c11 -32 40 -52 89 -52s78 20 89 52h44c-5 -63 -59 -100 -133 -100z" />
    <glyph glyph-name="gbreve" unicode="&#x11f;" horiz-adv-x="660" 
d="M317 -162c-85 0 -164 26 -234 78l29 40c61 -47 131 -72 206 -72c117 0 200 67 200 198v74c-44 -63 -112 -118 -213 -118c-123 0 -245 94 -245 240v2c0 147 122 242 245 242c102 0 171 -54 213 -114v102h49v-431c0 -74 -24 -132 -65 -173c-44 -44 -110 -68 -185 -68z
M310 85c106 0 211 78 211 194v2c0 118 -105 194 -211 194c-107 0 -197 -74 -197 -193v-2c0 -115 92 -195 197 -195zM332 593c-74 0 -128 42 -133 112h39c12 -37 42 -64 94 -64s82 27 94 64h39c-5 -70 -59 -112 -133 -112z" />
    <glyph glyph-name="Gcommaaccent" unicode="&#x122;" horiz-adv-x="784" 
d="M425 -12c-221 0 -352 163 -352 360v2c0 189 137 362 346 362c114 0 186 -34 256 -92l-34 -39c-55 48 -119 84 -225 84c-170 0 -289 -144 -289 -313v-2c0 -181 113 -316 300 -316c89 0 172 37 223 80v201h-234v48h284v-270c-63 -56 -161 -105 -275 -105zM357 -225l-6 24
c41 9 58 25 55 56h-31v71h72v-62c0 -50 -29 -80 -90 -89z" />
    <glyph glyph-name="gcommaaccent" unicode="&#x123;" horiz-adv-x="660" 
d="M317 -162c-85 0 -164 26 -234 78l29 40c61 -47 131 -72 206 -72c117 0 200 67 200 198v74c-44 -63 -112 -118 -213 -118c-123 0 -245 94 -245 240v2c0 147 122 242 245 242c102 0 171 -54 213 -114v102h49v-431c0 -74 -24 -132 -65 -173c-44 -44 -110 -68 -185 -68z
M310 85c106 0 211 78 211 194v2c0 118 -105 194 -211 194c-107 0 -197 -74 -197 -193v-2c0 -115 92 -195 197 -195zM386 746l6 -24c-41 -9 -58 -25 -55 -56h31v-71h-72v62c0 50 29 80 90 89z" />
    <glyph glyph-name="Gdotaccent" unicode="&#x120;" horiz-adv-x="784" 
d="M425 -12c-221 0 -352 163 -352 360v2c0 189 137 362 346 362c114 0 186 -34 256 -92l-34 -39c-55 48 -119 84 -225 84c-170 0 -289 -144 -289 -313v-2c0 -181 113 -316 300 -316c89 0 172 37 223 80v201h-234v48h284v-270c-63 -56 -161 -105 -275 -105zM374 775v76h76
v-76h-76z" />
    <glyph glyph-name="gdotaccent" unicode="&#x121;" horiz-adv-x="660" 
d="M317 -162c-85 0 -164 26 -234 78l29 40c61 -47 131 -72 206 -72c117 0 200 67 200 198v74c-44 -63 -112 -118 -213 -118c-123 0 -245 94 -245 240v2c0 147 122 242 245 242c102 0 171 -54 213 -114v102h49v-431c0 -74 -24 -132 -65 -173c-44 -44 -110 -68 -185 -68z
M310 85c106 0 211 78 211 194v2c0 118 -105 194 -211 194c-107 0 -197 -74 -197 -193v-2c0 -115 92 -195 197 -195zM296 595v81h72v-81h-72z" />
    <glyph glyph-name="Hbar" unicode="&#x126;" horiz-adv-x="820" 
d="M59 509v45h75v146h52v-146h448v146h52v-146h75v-45h-75v-509h-52v323h-448v-323h-52v509h-75zM186 371h448v138h-448v-138z" />
    <glyph glyph-name="hbar" unicode="&#x127;" horiz-adv-x="613" 
d="M327 618h-185v-203c34 60 91 107 184 107c129 0 204 -88 204 -210v-312h-49v303c0 105 -59 174 -162 174c-100 0 -177 -76 -177 -182v-295h-49v618h-70v45h70v67h49v-67h185v-45z" />
    <glyph glyph-name="Iacute" unicode="&#xcd;" horiz-adv-x="274" 
d="M111 0v700h52v-700h-52zM116 765l93 118l59 -28l-107 -90h-45z" />
    <glyph glyph-name="iacute" unicode="&#xed;" horiz-adv-x="249" 
d="M100 0v510h49v-510h-49zM103 595l88 133l61 -30l-107 -103h-42z" />
    <glyph glyph-name="Ibreve" unicode="&#x12c;" horiz-adv-x="274" 
d="M111 0v700h52v-700h-52zM137 763c-74 0 -128 37 -133 100h44c11 -32 40 -52 89 -52s78 20 89 52h44c-5 -63 -59 -100 -133 -100z" />
    <glyph glyph-name="ibreve" unicode="&#x12d;" horiz-adv-x="249" 
d="M100 0v510h49v-510h-49zM124 593c-74 0 -128 42 -133 112h39c12 -37 42 -64 94 -64s82 27 94 64h39c-5 -70 -59 -112 -133 -112z" />
    <glyph glyph-name="Icircumflex" unicode="&#xce;" horiz-adv-x="274" 
d="M111 0v700h52v-700h-52zM11 765l103 107h46l103 -107h-54l-73 61l-73 -61h-52z" />
    <glyph glyph-name="icircumflex" unicode="&#xee;" horiz-adv-x="249" 
d="M100 0v510h49v-510h-49zM4 595l100 122h40l100 -122h-47l-74 68l-74 -68h-45z" />
    <glyph glyph-name="Idieresis" unicode="&#xcf;" horiz-adv-x="274" 
d="M111 0v700h52v-700h-52zM189 765v76h73v-76h-73zM13 765v76h74v-76h-74z" />
    <glyph glyph-name="idieresis" unicode="&#xef;" horiz-adv-x="249" 
d="M100 0v510h49v-510h-49zM171 595v80h69v-80h-69zM8 595v80h69v-80h-69z" />
    <glyph glyph-name="Idotaccent" unicode="&#x130;" horiz-adv-x="274" 
d="M111 0v700h52v-700h-52zM99 765v76h76v-76h-76z" />
    <glyph glyph-name="dotlessi" unicode="&#x131;" horiz-adv-x="249" 
d="M100 0v510h49v-510h-49z" />
    <glyph glyph-name="Igrave" unicode="&#xcc;" horiz-adv-x="274" 
d="M111 0v700h52v-700h-52zM158 765h-45l-107 90l59 28z" />
    <glyph glyph-name="igrave" unicode="&#xec;" horiz-adv-x="249" 
d="M100 0v510h49v-510h-49zM103 595l-107 103l61 30l88 -133h-42z" />
    <glyph glyph-name="Imacron" unicode="&#x12a;" horiz-adv-x="274" 
d="M111 0v700h52v-700h-52zM-18 791v49h310v-49h-310z" />
    <glyph glyph-name="imacron" unicode="&#x12b;" horiz-adv-x="249" 
d="M100 0v510h49v-510h-49zM-23 621v47h294v-47h-294z" />
    <glyph glyph-name="Iogonek" unicode="&#x12e;" horiz-adv-x="274" 
d="M179 -128v-36c-83 3 -126 33 -126 79c0 34 20 61 58 91v694h52v-700h-4c-39 -31 -56 -51 -56 -79s20 -44 76 -49z" />
    <glyph glyph-name="iogonek" unicode="&#x12f;" horiz-adv-x="249" 
d="M166 -128v-36c-83 3 -126 33 -126 79c0 35 21 62 60 93v502h49v-510h-3c-39 -31 -56 -51 -56 -79s20 -44 76 -49zM94 643v67h61v-67h-61z" />
    <glyph glyph-name="Kcommaaccent" unicode="&#x136;" horiz-adv-x="715" 
d="M104 0v700h52v-460l446 460h71l-306 -309l319 -391h-68l-288 354l-174 -176v-178h-52zM307 -220l-6 24c41 9 58 25 55 56h-31v71h72v-62c0 -50 -29 -80 -90 -89z" />
    <glyph glyph-name="kcommaaccent" unicode="&#x137;" horiz-adv-x="560" 
d="M93 0v730h49v-547l316 327h65l-223 -226l230 -284h-62l-202 249l-124 -125v-124h-49zM242 -225l-6 24c41 9 58 25 55 56h-31v71h72v-62c0 -50 -29 -80 -90 -89z" />
    <glyph glyph-name="Lacute" unicode="&#x139;" horiz-adv-x="619" 
d="M104 0v700h52v-652h411v-48h-463zM117 765l93 118l59 -28l-107 -90h-45z" />
    <glyph glyph-name="lacute" unicode="&#x13a;" horiz-adv-x="249" 
d="M100 0v730h49v-730h-49zM103 788l93 118l59 -28l-107 -90h-45z" />
    <glyph glyph-name="Lcaron" unicode="&#x13d;" horiz-adv-x="619" 
d="M104 0v700h52v-652h411v-48h-463zM257 551l17 149h61v-3l-49 -146h-29z" />
    <glyph glyph-name="lcaron" unicode="&#x13e;" horiz-adv-x="249" 
d="M100 0v730h49v-730h-49zM219 581l17 149h61v-3l-49 -146h-29z" />
    <glyph glyph-name="Lcommaaccent" unicode="&#x13b;" horiz-adv-x="619" 
d="M104 0v700h52v-652h411v-48h-463zM276 -225l-6 24c41 9 58 25 55 56h-31v71h72v-62c0 -50 -29 -80 -90 -89z" />
    <glyph glyph-name="lcommaaccent" unicode="&#x13c;" horiz-adv-x="249" 
d="M100 0v730h49v-730h-49zM69 -225l-6 24c41 9 58 25 55 56h-31v71h72v-62c0 -50 -29 -80 -90 -89z" />
    <glyph glyph-name="Ldot" unicode="&#x13f;" horiz-adv-x="619" 
d="M421 322v81h72v-81h-72zM104 0v700h52v-652h411v-48h-463z" />
    <glyph glyph-name="ldot" unicode="&#x140;" horiz-adv-x="309" 
d="M244 325v81h72v-81h-72zM100 0v730h49v-730h-49z" />
    <glyph glyph-name="Lslash" unicode="&#x141;" horiz-adv-x="649" 
d="M374 410l-189 -90v-272h412v-48h-463v295l-75 -35v53l75 35v352h51v-327l189 90v-53z" />
    <glyph glyph-name="lslash" unicode="&#x142;" horiz-adv-x="309" 
d="M255 397l-76 -43v-354h-49v327l-76 -42v53l76 42v350h49v-323l76 43v-53z" />
    <glyph glyph-name="Nacute" unicode="&#x143;" horiz-adv-x="790" 
d="M104 0v700h49l483 -609v609h50v-700h-39l-493 622v-622h-50zM374 760l93 118l59 -28l-107 -90h-45z" />
    <glyph glyph-name="nacute" unicode="&#x144;" horiz-adv-x="613" 
d="M93 0v510h49v-95c34 60 91 107 184 107c129 0 204 -88 204 -210v-312h-49v303c0 105 -59 174 -162 174c-100 0 -177 -76 -177 -182v-295h-49zM290 595l88 133l61 -30l-107 -103h-42z" />
    <glyph glyph-name="Ncaron" unicode="&#x147;" horiz-adv-x="790" 
d="M104 0v700h49l483 -609v609h50v-700h-39l-493 622v-622h-50zM521 867l-103 -107h-46l-103 107h54l73 -61l73 61h52z" />
    <glyph glyph-name="ncaron" unicode="&#x148;" horiz-adv-x="613" 
d="M93 0v510h49v-95c34 60 91 107 184 107c129 0 204 -88 204 -210v-312h-49v303c0 105 -59 174 -162 174c-100 0 -177 -76 -177 -182v-295h-49zM431 717l-100 -122h-40l-100 122h47l74 -68l74 68h45z" />
    <glyph glyph-name="Ncommaaccent" unicode="&#x145;" horiz-adv-x="790" 
d="M104 0v700h49l483 -609v609h50v-700h-39l-493 622v-622h-50zM340 -220l-6 24c41 9 58 25 55 56h-31v71h72v-62c0 -50 -29 -80 -90 -89z" />
    <glyph glyph-name="ncommaaccent" unicode="&#x146;" horiz-adv-x="613" 
d="M93 0v510h49v-95c34 60 91 107 184 107c129 0 204 -88 204 -210v-312h-49v303c0 105 -59 174 -162 174c-100 0 -177 -76 -177 -182v-295h-49zM256 -225l-6 24c41 9 58 25 55 56h-31v71h72v-62c0 -50 -29 -80 -90 -89z" />
    <glyph glyph-name="Ntilde" unicode="&#xd1;" horiz-adv-x="790" 
d="M104 0v700h49l483 -609v609h50v-700h-39l-493 622v-622h-50zM463 760c-20 0 -44 10 -70 21c-19 8 -41 17 -56 17c-24 0 -35 -12 -50 -47l-37 10c19 64 44 88 82 88c20 0 44 -10 70 -21c19 -8 41 -17 56 -17c24 0 35 12 50 46l37 -10c-19 -64 -44 -87 -82 -87z" />
    <glyph glyph-name="ntilde" unicode="&#xf1;" horiz-adv-x="613" 
d="M93 0v510h49v-95c34 60 91 107 184 107c129 0 204 -88 204 -210v-312h-49v303c0 105 -59 174 -162 174c-100 0 -177 -76 -177 -182v-295h-49zM378 595c-19 0 -40 9 -65 20c-22 10 -46 21 -63 21c-24 0 -35 -12 -50 -50l-34 9c19 72 44 93 84 93c19 0 40 -9 65 -20
c22 -10 46 -21 63 -21c24 0 35 12 50 50l34 -9c-19 -72 -44 -93 -84 -93z" />
    <glyph glyph-name="Oacute" unicode="&#xd3;" horiz-adv-x="850" 
d="M424 -12c-212 0 -351 169 -351 360v2c0 191 141 362 353 362s351 -169 351 -360v-2c0 -191 -141 -362 -353 -362zM426 35c173 0 297 140 297 313v2c0 173 -126 315 -299 315s-297 -140 -297 -313v-2c0 -173 126 -315 299 -315zM404 775l93 118l59 -28l-107 -90h-45z" />
    <glyph glyph-name="oacute" unicode="&#xf3;" horiz-adv-x="640" 
d="M319 -12c-151 0 -261 122 -261 265v2c0 143 111 267 263 267c151 0 261 -122 261 -265v-2c0 -143 -111 -267 -263 -267zM321 34c121 0 208 99 208 219v2c0 123 -92 221 -210 221c-121 0 -208 -99 -208 -219v-2c0 -123 92 -221 210 -221zM299 595l88 133l61 -30l-107 -103
h-42z" />
    <glyph glyph-name="Obreve" unicode="&#x14e;" horiz-adv-x="850" 
d="M424 -12c-212 0 -351 169 -351 360v2c0 191 141 362 353 362s351 -169 351 -360v-2c0 -191 -141 -362 -353 -362zM426 35c173 0 297 140 297 313v2c0 173 -126 315 -299 315s-297 -140 -297 -313v-2c0 -173 126 -315 299 -315zM425 773c-74 0 -128 37 -133 100h44
c11 -32 40 -52 89 -52s78 20 89 52h44c-5 -63 -59 -100 -133 -100z" />
    <glyph glyph-name="obreve" unicode="&#x14f;" horiz-adv-x="640" 
d="M319 -12c-151 0 -261 122 -261 265v2c0 143 111 267 263 267c151 0 261 -122 261 -265v-2c0 -143 -111 -267 -263 -267zM321 34c121 0 208 99 208 219v2c0 123 -92 221 -210 221c-121 0 -208 -99 -208 -219v-2c0 -123 92 -221 210 -221zM320 593c-74 0 -128 42 -133 112
h39c12 -37 42 -64 94 -64s82 27 94 64h39c-5 -70 -59 -112 -133 -112z" />
    <glyph glyph-name="Ocircumflex" unicode="&#xd4;" horiz-adv-x="850" 
d="M424 -12c-212 0 -351 169 -351 360v2c0 191 141 362 353 362s351 -169 351 -360v-2c0 -191 -141 -362 -353 -362zM426 35c173 0 297 140 297 313v2c0 173 -126 315 -299 315s-297 -140 -297 -313v-2c0 -173 126 -315 299 -315zM299 775l103 107h46l103 -107h-54l-73 61
l-73 -61h-52z" />
    <glyph glyph-name="ocircumflex" unicode="&#xf4;" horiz-adv-x="640" 
d="M319 -12c-151 0 -261 122 -261 265v2c0 143 111 267 263 267c151 0 261 -122 261 -265v-2c0 -143 -111 -267 -263 -267zM321 34c121 0 208 99 208 219v2c0 123 -92 221 -210 221c-121 0 -208 -99 -208 -219v-2c0 -123 92 -221 210 -221zM200 595l100 122h40l100 -122h-47
l-74 68l-74 -68h-45z" />
    <glyph glyph-name="Odieresis" unicode="&#xd6;" horiz-adv-x="850" 
d="M424 -12c-212 0 -351 169 -351 360v2c0 191 141 362 353 362s351 -169 351 -360v-2c0 -191 -141 -362 -353 -362zM426 35c173 0 297 140 297 313v2c0 173 -126 315 -299 315s-297 -140 -297 -313v-2c0 -173 126 -315 299 -315zM477 775v76h73v-76h-73zM301 775v76h74v-76
h-74z" />
    <glyph glyph-name="odieresis" unicode="&#xf6;" horiz-adv-x="640" 
d="M319 -12c-151 0 -261 122 -261 265v2c0 143 111 267 263 267c151 0 261 -122 261 -265v-2c0 -143 -111 -267 -263 -267zM321 34c121 0 208 99 208 219v2c0 123 -92 221 -210 221c-121 0 -208 -99 -208 -219v-2c0 -123 92 -221 210 -221zM367 595v80h69v-80h-69zM204 595
v80h69v-80h-69z" />
    <glyph glyph-name="OE" unicode="&#x152;" horiz-adv-x="1152" 
d="M445 0c-220 0 -372 151 -372 348v2c0 197 152 350 372 350h639v-48h-431v-275h386v-48h-386v-281h436v-48h-644zM445 48h156v604h-156c-195 0 -318 -133 -318 -300v-2c0 -166 123 -302 318 -302z" />
    <glyph glyph-name="oe" unicode="&#x153;" horiz-adv-x="1055" 
d="M318 -12c-149 0 -260 122 -260 265v2c0 143 112 267 262 267c108 0 195 -65 234 -156c37 93 118 156 218 156c142 0 233 -116 233 -267c0 -9 0 -12 -1 -20h-423c9 -127 100 -201 200 -201c79 0 133 35 175 80l34 -30c-52 -56 -113 -96 -209 -96c-99 0 -188 60 -227 157
c-39 -91 -127 -157 -236 -157zM581 279h371c-7 103 -66 198 -183 198c-101 0 -179 -85 -188 -198zM321 34c121 0 208 99 208 219v2c0 123 -92 221 -210 221c-121 0 -208 -99 -208 -219v-2c0 -123 92 -221 210 -221z" />
    <glyph glyph-name="Ograve" unicode="&#xd2;" horiz-adv-x="850" 
d="M424 -12c-212 0 -351 169 -351 360v2c0 191 141 362 353 362s351 -169 351 -360v-2c0 -191 -141 -362 -353 -362zM426 35c173 0 297 140 297 313v2c0 173 -126 315 -299 315s-297 -140 -297 -313v-2c0 -173 126 -315 299 -315zM446 775h-45l-107 90l59 28z" />
    <glyph glyph-name="ograve" unicode="&#xf2;" horiz-adv-x="640" 
d="M319 -12c-151 0 -261 122 -261 265v2c0 143 111 267 263 267c151 0 261 -122 261 -265v-2c0 -143 -111 -267 -263 -267zM321 34c121 0 208 99 208 219v2c0 123 -92 221 -210 221c-121 0 -208 -99 -208 -219v-2c0 -123 92 -221 210 -221zM299 595l-107 103l61 30l88 -133
h-42z" />
    <glyph glyph-name="Ohungarumlaut" unicode="&#x150;" horiz-adv-x="850" 
d="M424 -12c-212 0 -351 169 -351 360v2c0 191 141 362 353 362s351 -169 351 -360v-2c0 -191 -141 -362 -353 -362zM426 35c173 0 297 140 297 313v2c0 173 -126 315 -299 315s-297 -140 -297 -313v-2c0 -173 126 -315 299 -315zM324 775l93 118l59 -28l-107 -90h-45z
M464 775l93 118l59 -28l-107 -90h-45z" />
    <glyph glyph-name="ohungarumlaut" unicode="&#x151;" horiz-adv-x="640" 
d="M319 -12c-151 0 -261 122 -261 265v2c0 143 111 267 263 267c151 0 261 -122 261 -265v-2c0 -143 -111 -267 -263 -267zM321 34c121 0 208 99 208 219v2c0 123 -92 221 -210 221c-121 0 -208 -99 -208 -219v-2c0 -123 92 -221 210 -221zM359 595l89 133l55 -29l-101 -104
h-43zM223 595l89 133l55 -29l-101 -104h-43z" />
    <glyph glyph-name="Omacron" unicode="&#x14c;" horiz-adv-x="850" 
d="M424 -12c-212 0 -351 169 -351 360v2c0 191 141 362 353 362s351 -169 351 -360v-2c0 -191 -141 -362 -353 -362zM426 35c173 0 297 140 297 313v2c0 173 -126 315 -299 315s-297 -140 -297 -313v-2c0 -173 126 -315 299 -315zM270 801v49h310v-49h-310z" />
    <glyph glyph-name="omacron" unicode="&#x14d;" horiz-adv-x="640" 
d="M319 -12c-151 0 -261 122 -261 265v2c0 143 111 267 263 267c151 0 261 -122 261 -265v-2c0 -143 -111 -267 -263 -267zM321 34c121 0 208 99 208 219v2c0 123 -92 221 -210 221c-121 0 -208 -99 -208 -219v-2c0 -123 92 -221 210 -221zM173 621v47h294v-47h-294z" />
    <glyph glyph-name="Oslash" unicode="&#xd8;" horiz-adv-x="850" 
d="M725 705h60l-100 -107c59 -65 92 -153 92 -246v-2c0 -191 -141 -362 -353 -362c-92 0 -169 31 -228 82l-71 -75h-60l99 106c-58 66 -91 154 -91 247v2c0 191 141 362 353 362c91 0 169 -32 228 -83zM426 34c174 0 298 140 298 314c0 82 -28 156 -75 213l-420 -452
c51 -47 119 -75 197 -75zM126 352c0 -82 27 -157 74 -213l421 452c-52 47 -120 75 -197 75c-174 0 -298 -140 -298 -314z" />
    <glyph glyph-name="oslash" unicode="&#xf8;" horiz-adv-x="640" 
d="M540 517h57l-80 -84c41 -47 65 -109 65 -176v-2c0 -143 -111 -267 -263 -267c-65 0 -123 23 -167 60l-52 -53h-57l79 82c-40 48 -64 109 -64 176v2c0 143 111 267 263 267c65 0 123 -23 167 -61zM321 33c122 0 209 99 209 220c0 55 -18 106 -49 144l-297 -312
c36 -33 84 -52 137 -52zM110 257c0 -55 17 -105 47 -144l299 311c-36 33 -84 53 -137 53c-122 0 -209 -99 -209 -220z" />
    <glyph glyph-name="Oslashacute" unicode="&#x1fe;" horiz-adv-x="850" 
d="M725 705h60l-100 -107c59 -65 92 -153 92 -246v-2c0 -191 -141 -362 -353 -362c-92 0 -169 31 -228 82l-71 -75h-60l99 106c-58 66 -91 154 -91 247v2c0 191 141 362 353 362c91 0 169 -32 228 -83zM426 34c174 0 298 140 298 314c0 82 -28 156 -75 213l-420 -452
c51 -47 119 -75 197 -75zM126 352c0 -82 27 -157 74 -213l421 452c-52 47 -120 75 -197 75c-174 0 -298 -140 -298 -314zM404 775l93 118l59 -28l-107 -90h-45z" />
    <glyph glyph-name="oslashacute" unicode="&#x1ff;" horiz-adv-x="640" 
d="M540 517h57l-80 -84c41 -47 65 -109 65 -176v-2c0 -143 -111 -267 -263 -267c-65 0 -123 23 -167 60l-52 -53h-57l79 82c-40 48 -64 109 -64 176v2c0 143 111 267 263 267c65 0 123 -23 167 -61zM321 33c122 0 209 99 209 220c0 55 -18 106 -49 144l-297 -312
c36 -33 84 -52 137 -52zM110 257c0 -55 17 -105 47 -144l299 311c-36 33 -84 53 -137 53c-122 0 -209 -99 -209 -220zM299 595l88 133l61 -30l-107 -103h-42z" />
    <glyph glyph-name="Otilde" unicode="&#xd5;" horiz-adv-x="850" 
d="M424 -12c-212 0 -351 169 -351 360v2c0 191 141 362 353 362s351 -169 351 -360v-2c0 -191 -141 -362 -353 -362zM426 35c173 0 297 140 297 313v2c0 173 -126 315 -299 315s-297 -140 -297 -313v-2c0 -173 126 -315 299 -315zM493 775c-20 0 -44 10 -70 21
c-19 8 -41 17 -56 17c-24 0 -35 -12 -50 -47l-37 10c19 64 44 88 82 88c20 0 44 -10 70 -21c19 -8 41 -17 56 -17c24 0 35 12 50 46l37 -10c-19 -64 -44 -87 -82 -87z" />
    <glyph glyph-name="otilde" unicode="&#xf5;" horiz-adv-x="640" 
d="M319 -12c-151 0 -261 122 -261 265v2c0 143 111 267 263 267c151 0 261 -122 261 -265v-2c0 -143 -111 -267 -263 -267zM321 34c121 0 208 99 208 219v2c0 123 -92 221 -210 221c-121 0 -208 -99 -208 -219v-2c0 -123 92 -221 210 -221zM387 595c-19 0 -40 9 -65 20
c-22 10 -46 21 -63 21c-24 0 -35 -12 -50 -50l-34 9c19 72 44 93 84 93c19 0 40 -9 65 -20c22 -10 46 -21 63 -21c24 0 35 12 50 50l34 -9c-19 -72 -44 -93 -84 -93z" />
    <glyph glyph-name="Racute" unicode="&#x154;" horiz-adv-x="723" 
d="M104 0v700h294c86 0 155 -27 197 -69c33 -33 53 -80 53 -130v-2c0 -117 -87 -184 -205 -200l231 -299h-66l-223 290h-229v-290h-52zM156 337h236c117 0 204 59 204 160v2c0 94 -74 153 -201 153h-239v-315zM330 765l93 118l59 -28l-107 -90h-45z" />
    <glyph glyph-name="racute" unicode="&#x155;" 
d="M93 0v510h49v-145c40 91 125 157 226 153v-54h-5c-118 0 -221 -89 -221 -255v-209h-49zM190 595l88 133l61 -30l-107 -103h-42z" />
    <glyph glyph-name="Rcaron" unicode="&#x158;" horiz-adv-x="723" 
d="M104 0v700h294c86 0 155 -27 197 -69c33 -33 53 -80 53 -130v-2c0 -117 -87 -184 -205 -200l231 -299h-66l-223 290h-229v-290h-52zM156 337h236c117 0 204 59 204 160v2c0 94 -74 153 -201 153h-239v-315zM477 872l-103 -107h-46l-103 107h54l73 -61l73 61h52z" />
    <glyph glyph-name="rcaron" unicode="&#x159;" 
d="M93 0v510h49v-145c40 91 125 157 226 153v-54h-5c-118 0 -221 -89 -221 -255v-209h-49zM331 717l-100 -122h-40l-100 122h47l74 -68l74 68h45z" />
    <glyph glyph-name="Rcommaaccent" unicode="&#x156;" horiz-adv-x="723" 
d="M104 0v700h294c86 0 155 -27 197 -69c33 -33 53 -80 53 -130v-2c0 -117 -87 -184 -205 -200l231 -299h-66l-223 290h-229v-290h-52zM156 337h236c117 0 204 59 204 160v2c0 94 -74 153 -201 153h-239v-315zM296 -220l-6 24c41 9 58 25 55 56h-31v71h72v-62
c0 -50 -29 -80 -90 -89z" />
    <glyph glyph-name="rcommaaccent" unicode="&#x157;" 
d="M93 0v510h49v-145c40 91 125 157 226 153v-54h-5c-118 0 -221 -89 -221 -255v-209h-49zM71 -225l-6 24c41 9 58 25 55 56h-31v71h72v-62c0 -50 -29 -80 -90 -89z" />
    <glyph glyph-name="Sacute" unicode="&#x15a;" horiz-adv-x="640" 
d="M341 -10c-112 0 -198 37 -282 112l34 39c77 -71 148 -104 251 -104c105 0 177 59 177 139v2c0 74 -39 117 -198 149c-168 34 -236 91 -236 197v2c0 104 95 184 225 184c102 0 169 -28 240 -85l-33 -41c-66 57 -132 79 -209 79c-103 0 -171 -59 -171 -132v-2
c0 -74 38 -119 204 -153c162 -33 230 -91 230 -193v-2c0 -113 -97 -191 -232 -191zM307 775l93 118l59 -28l-107 -90h-45z" />
    <glyph glyph-name="sacute" unicode="&#x15b;" horiz-adv-x="497" 
d="M258 -10c-74 0 -155 30 -209 74l29 39c56 -43 118 -67 183 -67c69 0 123 38 123 97v2c0 60 -64 82 -135 102c-83 24 -175 49 -175 140v2c0 82 69 141 168 141c61 0 130 -22 181 -56l-26 -41c-47 31 -103 51 -157 51c-70 0 -116 -38 -116 -89v-2c0 -57 69 -78 142 -99
c82 -23 168 -53 168 -143v-2c0 -91 -78 -149 -176 -149zM231 595l88 133l61 -30l-107 -103h-42z" />
    <glyph glyph-name="Scaron" unicode="&#x160;" horiz-adv-x="640" 
d="M341 -10c-112 0 -198 37 -282 112l34 39c77 -71 148 -104 251 -104c105 0 177 59 177 139v2c0 74 -39 117 -198 149c-168 34 -236 91 -236 197v2c0 104 95 184 225 184c102 0 169 -28 240 -85l-33 -41c-66 57 -132 79 -209 79c-103 0 -171 -59 -171 -132v-2
c0 -74 38 -119 204 -153c162 -33 230 -91 230 -193v-2c0 -113 -97 -191 -232 -191zM454 882l-103 -107h-46l-103 107h54l73 -61l73 61h52z" />
    <glyph glyph-name="scaron" unicode="&#x161;" horiz-adv-x="497" 
d="M258 -10c-74 0 -155 30 -209 74l29 39c56 -43 118 -67 183 -67c69 0 123 38 123 97v2c0 60 -64 82 -135 102c-83 24 -175 49 -175 140v2c0 82 69 141 168 141c61 0 130 -22 181 -56l-26 -41c-47 31 -103 51 -157 51c-70 0 -116 -38 -116 -89v-2c0 -57 69 -78 142 -99
c82 -23 168 -53 168 -143v-2c0 -91 -78 -149 -176 -149zM372 717l-100 -122h-40l-100 122h47l74 -68l74 68h45z" />
    <glyph glyph-name="Scedilla" unicode="&#x15e;" horiz-adv-x="640" 
d="M288 -148l-55 26l77 113c-98 7 -175 43 -251 111l34 39c77 -71 148 -104 251 -104c105 0 177 59 177 139v2c0 74 -39 117 -198 149c-168 34 -236 91 -236 197v2c0 104 95 184 225 184c102 0 169 -28 240 -85l-33 -41c-66 57 -132 79 -209 79c-103 0 -171 -59 -171 -132
v-2c0 -74 38 -119 204 -153c162 -33 230 -91 230 -193v-2c0 -109 -90 -184 -217 -190z" />
    <glyph glyph-name="scedilla" unicode="&#x15f;" horiz-adv-x="497" 
d="M199 -148l-55 26l78 114c-64 8 -128 35 -173 72l29 39c56 -43 118 -67 183 -67c69 0 123 38 123 97v2c0 60 -64 82 -135 102c-83 24 -175 49 -175 140v2c0 82 69 141 168 141c61 0 130 -22 181 -56l-26 -41c-47 31 -103 51 -157 51c-70 0 -116 -38 -116 -89v-2
c0 -57 69 -78 142 -99c82 -23 168 -53 168 -143v-2c0 -88 -73 -145 -167 -149z" />
    <glyph glyph-name="Scommaaccent" unicode="&#x218;" horiz-adv-x="640" 
d="M341 -10c-112 0 -198 37 -282 112l34 39c77 -71 148 -104 251 -104c105 0 177 59 177 139v2c0 74 -39 117 -198 149c-168 34 -236 91 -236 197v2c0 104 95 184 225 184c102 0 169 -28 240 -85l-33 -41c-66 57 -132 79 -209 79c-103 0 -171 -59 -171 -132v-2
c0 -74 38 -119 204 -153c162 -33 230 -91 230 -193v-2c0 -113 -97 -191 -232 -191zM273 -225l-6 24c41 9 58 25 55 56h-31v71h72v-62c0 -50 -29 -80 -90 -89z" />
    <glyph glyph-name="scommaaccent" unicode="&#x219;" horiz-adv-x="497" 
d="M258 -10c-74 0 -155 30 -209 74l29 39c56 -43 118 -67 183 -67c69 0 123 38 123 97v2c0 60 -64 82 -135 102c-83 24 -175 49 -175 140v2c0 82 69 141 168 141c61 0 130 -22 181 -56l-26 -41c-47 31 -103 51 -157 51c-70 0 -116 -38 -116 -89v-2c0 -57 69 -78 142 -99
c82 -23 168 -53 168 -143v-2c0 -91 -78 -149 -176 -149zM197 -225l-6 24c41 9 58 25 55 56h-31v71h72v-62c0 -50 -29 -80 -90 -89z" />
    <glyph glyph-name="Tcaron" unicode="&#x164;" horiz-adv-x="648" 
d="M298 0v652h-244v48h540v-48h-244v-652h-52zM450 872l-103 -107h-46l-103 107h54l73 -61l73 61h52z" />
    <glyph glyph-name="tcaron" unicode="&#x165;" 
d="M263 -9c-79 0 -143 43 -143 140v334h-74v45h74v163h49v-163h179v-45h-179v-329c0 -73 43 -99 102 -99c25 0 46 5 75 18v-46c-26 -12 -51 -18 -83 -18zM262 581l17 149h61v-3l-49 -146h-29z" />
    <glyph glyph-name="Tcommaaccent" unicode="&#x162;" horiz-adv-x="648" 
d="M298 0v652h-244v48h540v-48h-244v-652h-52zM269 -225l-6 24c41 9 58 25 55 56h-31v71h72v-62c0 -50 -29 -80 -90 -89z" />
    <glyph glyph-name="tcommaaccent" unicode="&#x163;" 
d="M263 -9c-79 0 -143 43 -143 140v334h-74v45h74v163h49v-163h179v-45h-179v-329c0 -73 43 -99 102 -99c25 0 46 5 75 18v-46c-26 -12 -51 -18 -83 -18zM171 -225l-6 24c41 9 58 25 55 56h-31v71h72v-62c0 -50 -29 -80 -90 -89z" />
    <glyph glyph-name="Thorn" unicode="&#xde;" horiz-adv-x="673" 
d="M104 0v700h52v-127h202c154 0 260 -79 260 -214v-2c0 -147 -127 -224 -273 -224h-189v-133h-52zM156 181h192c130 0 218 69 218 173v2c0 111 -86 169 -212 169h-198v-344z" />
    <glyph glyph-name="thorn" unicode="&#xfe;" horiz-adv-x="660" 
d="M93 -160v890h49v-334c44 67 109 126 210 126c123 0 248 -99 248 -265v-2c0 -166 -125 -267 -248 -267c-102 0 -168 58 -210 122v-270h-49zM347 35c111 0 200 81 200 218v2c0 134 -93 220 -200 220c-106 0 -208 -89 -208 -219v-2c0 -131 102 -219 208 -219z" />
    <glyph glyph-name="Uacute" unicode="&#xda;" horiz-adv-x="760" 
d="M380 -11c-168 0 -287 106 -287 302v409h52v-404c0 -165 89 -260 237 -260c142 0 233 86 233 255v409h52v-403c0 -201 -117 -308 -287 -308zM359 760l93 118l59 -28l-107 -90h-45z" />
    <glyph glyph-name="uacute" unicode="&#xfa;" horiz-adv-x="613" 
d="M287 -12c-129 0 -204 88 -204 210v312h49v-303c0 -105 59 -174 162 -174c100 0 177 76 177 182v295h49v-510h-49v95c-34 -60 -91 -107 -184 -107zM280 595l88 133l61 -30l-107 -103h-42z" />
    <glyph glyph-name="Ubreve" unicode="&#x16c;" horiz-adv-x="760" 
d="M380 -11c-168 0 -287 106 -287 302v409h52v-404c0 -165 89 -260 237 -260c142 0 233 86 233 255v409h52v-403c0 -201 -117 -308 -287 -308zM380 758c-74 0 -128 37 -133 100h44c11 -32 40 -52 89 -52s78 20 89 52h44c-5 -63 -59 -100 -133 -100z" />
    <glyph glyph-name="ubreve" unicode="&#x16d;" horiz-adv-x="613" 
d="M287 -12c-129 0 -204 88 -204 210v312h49v-303c0 -105 59 -174 162 -174c100 0 177 76 177 182v295h49v-510h-49v95c-34 -60 -91 -107 -184 -107zM301 593c-74 0 -128 42 -133 112h39c12 -37 42 -64 94 -64s82 27 94 64h39c-5 -70 -59 -112 -133 -112z" />
    <glyph glyph-name="Ucircumflex" unicode="&#xdb;" horiz-adv-x="760" 
d="M380 -11c-168 0 -287 106 -287 302v409h52v-404c0 -165 89 -260 237 -260c142 0 233 86 233 255v409h52v-403c0 -201 -117 -308 -287 -308zM254 760l103 107h46l103 -107h-54l-73 61l-73 -61h-52z" />
    <glyph glyph-name="ucircumflex" unicode="&#xfb;" horiz-adv-x="613" 
d="M287 -12c-129 0 -204 88 -204 210v312h49v-303c0 -105 59 -174 162 -174c100 0 177 76 177 182v295h49v-510h-49v95c-34 -60 -91 -107 -184 -107zM181 595l100 122h40l100 -122h-47l-74 68l-74 -68h-45z" />
    <glyph glyph-name="Udieresis" unicode="&#xdc;" horiz-adv-x="760" 
d="M380 -11c-168 0 -287 106 -287 302v409h52v-404c0 -165 89 -260 237 -260c142 0 233 86 233 255v409h52v-403c0 -201 -117 -308 -287 -308zM432 760v76h73v-76h-73zM256 760v76h74v-76h-74z" />
    <glyph glyph-name="udieresis" unicode="&#xfc;" horiz-adv-x="613" 
d="M287 -12c-129 0 -204 88 -204 210v312h49v-303c0 -105 59 -174 162 -174c100 0 177 76 177 182v295h49v-510h-49v95c-34 -60 -91 -107 -184 -107zM348 595v80h69v-80h-69zM185 595v80h69v-80h-69z" />
    <glyph glyph-name="Ugrave" unicode="&#xd9;" horiz-adv-x="760" 
d="M380 -11c-168 0 -287 106 -287 302v409h52v-404c0 -165 89 -260 237 -260c142 0 233 86 233 255v409h52v-403c0 -201 -117 -308 -287 -308zM401 760h-45l-107 90l59 28z" />
    <glyph glyph-name="ugrave" unicode="&#xf9;" horiz-adv-x="613" 
d="M287 -12c-129 0 -204 88 -204 210v312h49v-303c0 -105 59 -174 162 -174c100 0 177 76 177 182v295h49v-510h-49v95c-34 -60 -91 -107 -184 -107zM280 595l-107 103l61 30l88 -133h-42z" />
    <glyph glyph-name="Uhungarumlaut" unicode="&#x170;" horiz-adv-x="760" 
d="M380 -11c-168 0 -287 106 -287 302v409h52v-404c0 -165 89 -260 237 -260c142 0 233 86 233 255v409h52v-403c0 -201 -117 -308 -287 -308zM279 760l93 118l59 -28l-107 -90h-45zM419 760l93 118l59 -28l-107 -90h-45z" />
    <glyph glyph-name="uhungarumlaut" unicode="&#x171;" horiz-adv-x="613" 
d="M287 -12c-129 0 -204 88 -204 210v312h49v-303c0 -105 59 -174 162 -174c100 0 177 76 177 182v295h49v-510h-49v95c-34 -60 -91 -107 -184 -107zM340 595l89 133l55 -29l-101 -104h-43zM204 595l89 133l55 -29l-101 -104h-43z" />
    <glyph glyph-name="Umacron" unicode="&#x16a;" horiz-adv-x="760" 
d="M380 -11c-168 0 -287 106 -287 302v409h52v-404c0 -165 89 -260 237 -260c142 0 233 86 233 255v409h52v-403c0 -201 -117 -308 -287 -308zM225 786v49h310v-49h-310z" />
    <glyph glyph-name="umacron" unicode="&#x16b;" horiz-adv-x="613" 
d="M287 -12c-129 0 -204 88 -204 210v312h49v-303c0 -105 59 -174 162 -174c100 0 177 76 177 182v295h49v-510h-49v95c-34 -60 -91 -107 -184 -107zM154 621v47h294v-47h-294z" />
    <glyph glyph-name="Uogonek" unicode="&#x172;" horiz-adv-x="760" 
d="M437 -128v-36c-83 3 -126 33 -126 79c0 28 14 51 40 76c-153 11 -258 115 -258 300v409h52v-404c0 -165 89 -260 237 -260c142 0 233 86 233 255v409h52v-403c0 -191 -106 -297 -262 -307c-30 -26 -44 -44 -44 -69c0 -28 20 -44 76 -49z" />
    <glyph glyph-name="uogonek" unicode="&#x173;" horiz-adv-x="613" 
d="M536 -128v-36c-83 3 -126 33 -126 79c0 35 21 62 61 93v87c-34 -60 -91 -107 -184 -107c-129 0 -204 88 -204 210v312h49v-303c0 -105 59 -174 162 -174c100 0 177 76 177 182v295h49v-510h-4c-39 -31 -56 -51 -56 -79s20 -44 76 -49z" />
    <glyph glyph-name="Uring" unicode="&#x16e;" horiz-adv-x="760" 
d="M380 -11c-168 0 -287 106 -287 302v409h52v-404c0 -165 89 -260 237 -260c142 0 233 86 233 255v409h52v-403c0 -201 -117 -308 -287 -308zM380 748c-58 0 -106 41 -106 95s48 95 106 95s106 -41 106 -95s-48 -95 -106 -95zM380 780c38 0 68 27 68 63s-30 63 -68 63
s-68 -27 -68 -63s30 -63 68 -63z" />
    <glyph glyph-name="uring" unicode="&#x16f;" horiz-adv-x="613" 
d="M287 -12c-129 0 -204 88 -204 210v312h49v-303c0 -105 59 -174 162 -174c100 0 177 76 177 182v295h49v-510h-49v95c-34 -60 -91 -107 -184 -107zM301 583c-57 0 -104 45 -104 100s47 100 104 100s104 -45 104 -100s-47 -100 -104 -100zM301 613c38 0 70 32 70 70
s-32 70 -70 70s-70 -32 -70 -70s32 -70 70 -70z" />
    <glyph glyph-name="Wacute" unicode="&#x1e82;" horiz-adv-x="1102" 
d="M304 -5l-254 705h58l220 -623l205 625h40l205 -625l220 623h54l-254 -705h-42l-205 608l-205 -608h-42zM530 765l93 118l59 -28l-107 -90h-45z" />
    <glyph glyph-name="wacute" unicode="&#x1e83;" horiz-adv-x="861" 
d="M236 -4l-187 514h55l154 -448l154 450h39l154 -450l154 448h53l-187 -514h-42l-152 437l-153 -437h-42zM409 595l88 133l61 -30l-107 -103h-42z" />
    <glyph glyph-name="Wcircumflex" unicode="&#x174;" horiz-adv-x="1102" 
d="M304 -5l-254 705h58l220 -623l205 625h40l205 -625l220 623h54l-254 -705h-42l-205 608l-205 -608h-42zM425 765l103 107h46l103 -107h-54l-73 61l-73 -61h-52z" />
    <glyph glyph-name="wcircumflex" unicode="&#x175;" horiz-adv-x="861" 
d="M236 -4l-187 514h55l154 -448l154 450h39l154 -450l154 448h53l-187 -514h-42l-152 437l-153 -437h-42zM310 595l100 122h40l100 -122h-47l-74 68l-74 -68h-45z" />
    <glyph glyph-name="Wdieresis" unicode="&#x1e84;" horiz-adv-x="1102" 
d="M304 -5l-254 705h58l220 -623l205 625h40l205 -625l220 623h54l-254 -705h-42l-205 608l-205 -608h-42zM603 765v76h73v-76h-73zM427 765v76h74v-76h-74z" />
    <glyph glyph-name="wdieresis" unicode="&#x1e85;" horiz-adv-x="861" 
d="M236 -4l-187 514h55l154 -448l154 450h39l154 -450l154 448h53l-187 -514h-42l-152 437l-153 -437h-42zM477 595v80h69v-80h-69zM314 595v80h69v-80h-69z" />
    <glyph glyph-name="Wgrave" unicode="&#x1e80;" horiz-adv-x="1102" 
d="M304 -5l-254 705h58l220 -623l205 625h40l205 -625l220 623h54l-254 -705h-42l-205 608l-205 -608h-42zM572 765h-45l-107 90l59 28z" />
    <glyph glyph-name="wgrave" unicode="&#x1e81;" horiz-adv-x="861" 
d="M236 -4l-187 514h55l154 -448l154 450h39l154 -450l154 448h53l-187 -514h-42l-152 437l-153 -437h-42zM409 595l-107 103l61 30l88 -133h-42z" />
    <glyph glyph-name="Yacute" unicode="&#xdd;" horiz-adv-x="716" 
d="M332 0v277l-300 423h65l262 -376l263 376h62l-300 -422v-278h-52zM337 760l93 118l59 -28l-107 -90h-45z" />
    <glyph glyph-name="yacute" unicode="&#xfd;" horiz-adv-x="588" 
d="M308 54l184 456h54l-221 -528c-45 -107 -97 -145 -170 -145c-39 0 -67 7 -101 22l17 43c27 -13 49 -19 87 -19c53 0 88 31 126 120l-245 507h57zM277 595l88 133l61 -30l-107 -103h-42z" />
    <glyph glyph-name="Ycircumflex" unicode="&#x176;" horiz-adv-x="716" 
d="M332 0v277l-300 423h65l262 -376l263 376h62l-300 -422v-278h-52zM232 760l103 107h46l103 -107h-54l-73 61l-73 -61h-52z" />
    <glyph glyph-name="ycircumflex" unicode="&#x177;" horiz-adv-x="588" 
d="M308 54l184 456h54l-221 -528c-45 -107 -97 -145 -170 -145c-39 0 -67 7 -101 22l17 43c27 -13 49 -19 87 -19c53 0 88 31 126 120l-245 507h57zM178 595l100 122h40l100 -122h-47l-74 68l-74 -68h-45z" />
    <glyph glyph-name="Ydieresis" unicode="&#x178;" horiz-adv-x="716" 
d="M332 0v277l-300 423h65l262 -376l263 376h62l-300 -422v-278h-52zM410 760v76h73v-76h-73zM234 760v76h74v-76h-74z" />
    <glyph glyph-name="ydieresis" unicode="&#xff;" horiz-adv-x="588" 
d="M308 54l184 456h54l-221 -528c-45 -107 -97 -145 -170 -145c-39 0 -67 7 -101 22l17 43c27 -13 49 -19 87 -19c53 0 88 31 126 120l-245 507h57zM345 595v80h69v-80h-69zM182 595v80h69v-80h-69z" />
    <glyph glyph-name="Ygrave" unicode="&#x1ef2;" horiz-adv-x="716" 
d="M332 0v277l-300 423h65l262 -376l263 376h62l-300 -422v-278h-52zM379 760h-45l-107 90l59 28z" />
    <glyph glyph-name="ygrave" unicode="&#x1ef3;" horiz-adv-x="588" 
d="M308 54l184 456h54l-221 -528c-45 -107 -97 -145 -170 -145c-39 0 -67 7 -101 22l17 43c27 -13 49 -19 87 -19c53 0 88 31 126 120l-245 507h57zM277 595l-107 103l61 30l88 -133h-42z" />
    <glyph glyph-name="Zacute" unicode="&#x179;" horiz-adv-x="688" 
d="M68 0v29l479 624h-462v47h536v-29l-479 -624h479v-47h-553zM332 765l93 118l59 -28l-107 -90h-45z" />
    <glyph glyph-name="zacute" unicode="&#x17a;" horiz-adv-x="554" 
d="M58 0v28l368 438h-354v44h427v-28l-368 -438h368v-44h-441zM261 595l88 133l61 -30l-107 -103h-42z" />
    <glyph glyph-name="Zcaron" unicode="&#x17d;" horiz-adv-x="688" 
d="M68 0v29l479 624h-462v47h536v-29l-479 -624h479v-47h-553zM479 872l-103 -107h-46l-103 107h54l73 -61l73 61h52z" />
    <glyph glyph-name="zcaron" unicode="&#x17e;" horiz-adv-x="554" 
d="M58 0v28l368 438h-354v44h427v-28l-368 -438h368v-44h-441zM402 717l-100 -122h-40l-100 122h47l74 -68l74 68h45z" />
    <glyph glyph-name="Zdotaccent" unicode="&#x17b;" horiz-adv-x="688" 
d="M68 0v29l479 624h-462v47h536v-29l-479 -624h479v-47h-553zM315 765v76h76v-76h-76z" />
    <glyph glyph-name="zdotaccent" unicode="&#x17c;" horiz-adv-x="554" 
d="M58 0v28l368 438h-354v44h427v-28l-368 -438h368v-44h-441zM246 595v81h72v-81h-72z" />
    <glyph glyph-name="schwa" unicode="&#x259;" horiz-adv-x="584" 
d="M276 522c134 0 250 -107 250 -266v-2c0 -148 -104 -266 -242 -266c-143 0 -234 116 -234 267c0 9 0 12 1 20h423c-9 127 -100 201 -200 201c-79 0 -133 -35 -175 -80l-34 30c52 56 113 96 211 96zM474 231h-371c7 -103 66 -198 183 -198c101 0 179 85 188 198z" />
    <glyph glyph-name="germandbls" unicode="&#xdf;" horiz-adv-x="620" 
d="M289 -2v43c132 3 215 52 215 146v2c0 90 -83 139 -215 153v41c98 30 170 84 170 175v2c0 76 -61 131 -149 131c-97 0 -168 -74 -168 -191v-500h-49v500c0 139 85 237 220 237c120 0 199 -77 199 -175v-2c0 -97 -79 -162 -157 -190c105 -18 202 -71 202 -179v-2
c0 -120 -103 -191 -268 -191z" />
    <glyph glyph-name="zero" unicode="0" horiz-adv-x="710" 
d="M354 -12c-178 0 -289 167 -289 360v2c0 193 113 362 291 362s289 -167 289 -360v-2c0 -193 -113 -362 -291 -362zM356 35c145 0 235 151 235 313v2c0 163 -92 315 -237 315s-235 -150 -235 -313v-2c0 -162 92 -315 237 -315z" />
    <glyph glyph-name="one" unicode="1" horiz-adv-x="335" 
d="M179 0v651l-135 -46l-14 41l160 59h40v-705h-51z" />
    <glyph glyph-name="two" unicode="2" horiz-adv-x="590" 
d="M48 0v39l261 236c115 105 155 165 155 239c0 91 -74 150 -158 150c-89 0 -147 -46 -205 -130l-39 26c61 93 126 150 249 150c119 0 208 -83 208 -192v-2c0 -96 -52 -160 -175 -272l-214 -194h396v-50h-478z" />
    <glyph glyph-name="three" unicode="3" horiz-adv-x="610" 
d="M311 -12c-114 0 -200 52 -257 126l40 33c56 -71 126 -112 218 -112c94 0 173 63 173 155v2c0 98 -92 152 -218 152h-38l-13 29l241 278h-367v49h438v-37l-237 -271c133 -8 248 -70 248 -198v-2c0 -122 -107 -204 -228 -204z" />
    <glyph glyph-name="three.alt" horiz-adv-x="600" 
d="M303 -12c-112 0 -203 55 -258 129l42 31c52 -69 124 -113 218 -113c102 0 178 59 178 148v2c0 90 -76 145 -207 145h-70v46h71c106 0 187 54 187 146v2c0 81 -67 141 -168 141c-85 0 -145 -38 -195 -107l-40 24c53 78 130 130 237 130c127 0 220 -80 220 -186v-2
c0 -96 -68 -144 -133 -166c86 -25 152 -80 152 -172v-2c0 -108 -97 -196 -234 -196z" />
    <glyph glyph-name="four" unicode="4" horiz-adv-x="664" 
d="M445 0v171h-379l-18 39l400 495h47v-489h114v-45h-114v-171h-50zM111 216h334v414z" />
    <glyph glyph-name="five" unicode="5" horiz-adv-x="605" 
d="M302 -12c-95 0 -184 51 -245 113l37 37c63 -63 136 -103 210 -103c111 0 188 78 188 176v2c0 97 -79 166 -192 166c-65 0 -114 -20 -158 -44l-40 26l20 339h393v-50h-347l-17 -262c45 22 90 38 155 38c135 0 240 -86 240 -211v-2c0 -132 -103 -225 -244 -225z" />
    <glyph glyph-name="six" unicode="6" horiz-adv-x="642" 
d="M331 -12c-72 0 -136 28 -178 70c-58 58 -89 128 -89 273v2c0 211 111 379 285 379c80 0 141 -31 202 -81l-33 -40c-54 48 -107 74 -173 74c-141 0 -229 -146 -229 -343v-20c49 83 119 130 219 130c127 0 241 -87 241 -212v-2c0 -132 -107 -230 -245 -230zM335 35
c113 0 187 82 187 181v2c0 96 -79 168 -190 168c-115 0 -195 -87 -195 -173v-2c0 -100 85 -176 198 -176z" />
    <glyph glyph-name="seven" unicode="7" horiz-adv-x="587" 
d="M156 0l318 650h-406v50h464v-38l-319 -662h-57z" />
    <glyph glyph-name="eight" unicode="8" horiz-adv-x="630" 
d="M315 -10c-147 0 -260 81 -260 197v2c0 82 67 144 155 173c-69 28 -131 80 -131 163v2c0 109 115 183 236 183s236 -74 236 -183v-2c0 -83 -62 -135 -131 -163c88 -29 155 -91 155 -173v-2c0 -116 -113 -197 -260 -197zM315 381c99 0 182 58 182 144v2
c0 79 -80 136 -182 136s-182 -57 -182 -136v-2c0 -86 83 -144 182 -144zM315 37c129 0 206 69 206 148v2c0 87 -92 150 -206 150s-206 -63 -206 -150v-2c0 -79 77 -148 206 -148z" />
    <glyph glyph-name="nine" unicode="9" horiz-adv-x="642" 
d="M294 35c140 0 232 147 232 333v27c-47 -82 -118 -134 -218 -134c-141 0 -242 94 -242 214v2c0 129 100 235 246 235c75 0 136 -29 178 -71c54 -54 88 -133 88 -273v-2c0 -220 -122 -378 -285 -378c-87 0 -153 38 -211 87l33 40c59 -53 115 -80 179 -80zM310 307
c119 0 195 90 195 178v2c0 99 -83 178 -199 178c-115 0 -186 -89 -186 -186v-2c0 -98 79 -170 190 -170z" />
    <glyph glyph-name="period" unicode="." horiz-adv-x="230" 
d="M82 0v85h66v-85h-66z" />
    <glyph glyph-name="comma" unicode="," horiz-adv-x="230" 
d="M65 -107l-12 25c43 22 59 44 56 82h-27v85h66v-74c0 -62 -23 -95 -83 -118z" />
    <glyph glyph-name="colon" unicode=":" horiz-adv-x="240" 
d="M87 425v85h66v-85h-66zM87 0v85h66v-85h-66z" />
    <glyph glyph-name="semicolon" unicode=";" horiz-adv-x="240" 
d="M87 425v85h66v-85h-66zM70 -107l-12 25c43 22 59 44 56 82h-27v85h66v-74c0 -62 -23 -95 -83 -118z" />
    <glyph glyph-name="ellipsis" unicode="&#x2026;" horiz-adv-x="680" 
d="M534 0v83h64v-83h-64zM308 0v83h64v-83h-64zM82 0v83h64v-83h-64z" />
    <glyph glyph-name="periodcentered" unicode="&#xb7;" horiz-adv-x="230" 
d="M82 255v85h66v-85h-66z" />
    <glyph glyph-name="bullet" unicode="&#x2022;" horiz-adv-x="470" 
d="M235 228c-68 0 -124 55 -124 123v2c0 68 59 123 124 123c64 0 124 -55 124 -123v-2c0 -68 -56 -123 -124 -123z" />
    <glyph glyph-name="ampersand" unicode="&#x26;" horiz-adv-x="696" 
d="M622 -14l-121 125c-66 -77 -143 -121 -237 -121c-123 0 -215 80 -215 194v2c0 94 67 163 181 205c-53 59 -78 102 -78 160v2c0 90 73 159 175 159c91 0 161 -68 161 -152v-2c0 -87 -65 -144 -172 -181l184 -189c34 48 64 106 91 170l47 -19c-32 -72 -66 -135 -104 -186
l129 -133zM285 409c100 32 151 81 151 147v2c0 62 -48 110 -111 110c-71 0 -121 -50 -121 -113v-2c0 -44 19 -78 81 -144zM265 35c78 0 145 42 203 110l-207 214c-111 -38 -160 -103 -160 -171v-2c0 -85 68 -151 164 -151z" />
    <glyph glyph-name="exclam" unicode="!" horiz-adv-x="252" 
d="M112 183l-15 447v70h58v-70l-15 -447h-28zM93 0v85h66v-85h-66z" />
    <glyph glyph-name="exclamdown" unicode="&#xa1;" horiz-adv-x="252" 
d="M93 615v85h66v-85h-66zM97 0v70l15 447h28l15 -447v-70h-58z" />
    <glyph glyph-name="question" unicode="?" horiz-adv-x="534" 
d="M229 183l-13 162l5 5c132 3 208 64 208 160v2c0 82 -64 151 -166 151c-80 0 -141 -39 -193 -103l-36 30c57 71 125 119 231 119c132 0 217 -88 217 -195v-2c0 -124 -96 -190 -212 -204l-9 -125h-32zM212 0v85h66v-85h-66z" />
    <glyph glyph-name="questiondown" unicode="&#xbf;" horiz-adv-x="534" 
d="M256 615v85h66v-85h-66zM269 -9c-132 0 -217 88 -217 195v2c0 124 96 190 212 204l9 125h32l13 -162l-5 -5c-132 -3 -208 -64 -208 -160v-2c0 -82 64 -151 166 -151c80 0 141 39 193 103l36 -30c-57 -71 -125 -119 -231 -119z" />
    <glyph glyph-name="quotedblleft" unicode="&#x201c;" horiz-adv-x="410" 
d="M257 513v74c0 62 23 95 83 118l12 -25c-43 -22 -59 -44 -56 -82h27v-85h-66zM77 513v74c0 62 23 95 83 118l12 -25c-43 -22 -59 -44 -56 -82h27v-85h-66z" />
    <glyph glyph-name="quotedblright" unicode="&#x201d;" horiz-adv-x="410" 
d="M250 508l-12 25c43 22 59 44 56 82h-27v85h66v-74c0 -62 -23 -95 -83 -118zM70 508l-12 25c43 22 59 44 56 82h-27v85h66v-74c0 -62 -23 -95 -83 -118z" />
    <glyph glyph-name="quoteleft" unicode="&#x2018;" horiz-adv-x="230" 
d="M77 513v74c0 62 23 95 83 118l12 -25c-43 -22 -59 -44 -56 -82h27v-85h-66z" />
    <glyph glyph-name="quoteright" unicode="&#x2019;" horiz-adv-x="230" 
d="M70 508l-12 25c43 22 59 44 56 82h-27v85h66v-74c0 -62 -23 -95 -83 -118z" />
    <glyph glyph-name="quotedblbase" unicode="&#x201e;" horiz-adv-x="410" 
d="M245 -107l-12 25c43 22 59 44 56 82h-27v85h66v-74c0 -62 -23 -95 -83 -118zM65 -107l-12 25c43 22 59 44 56 82h-27v85h66v-74c0 -62 -23 -95 -83 -118z" />
    <glyph glyph-name="quotesinglbase" unicode="&#x201a;" horiz-adv-x="230" 
d="M65 -107l-12 25c43 22 59 44 56 82h-27v85h66v-74c0 -62 -23 -95 -83 -118z" />
    <glyph glyph-name="guillemotleft" unicode="&#xab;" horiz-adv-x="515" 
d="M415 42l-160 209v8l160 209l37 -24l-137 -188l137 -190zM211 42l-160 209v8l160 209l37 -24l-137 -188l137 -190z" />
    <glyph glyph-name="guillemotright" unicode="&#xbb;" horiz-adv-x="515" 
d="M304 42l-37 24l137 188l-137 190l37 24l160 -209v-8zM100 42l-37 24l137 188l-137 190l37 24l160 -209v-8z" />
    <glyph glyph-name="guilsinglleft" unicode="&#x2039;" horiz-adv-x="311" 
d="M211 42l-160 209v8l160 209l37 -24l-137 -188l137 -190z" />
    <glyph glyph-name="guilsinglright" unicode="&#x203a;" horiz-adv-x="311" 
d="M100 42l-37 24l137 188l-137 190l37 24l160 -209v-8z" />
    <glyph glyph-name="hyphen" unicode="-" horiz-adv-x="408" 
d="M70 269v56h268v-56h-268z" />
    <glyph glyph-name="endash" unicode="&#x2013;" horiz-adv-x="528" 
d="M70 271v52h388v-52h-388z" />
    <glyph glyph-name="emdash" unicode="&#x2014;" horiz-adv-x="898" 
d="M70 271v52h758v-52h-758z" />
    <glyph glyph-name="underscore" unicode="_" horiz-adv-x="600" 
d="M-2 -160v44h604v-44h-604z" />
    <glyph glyph-name="slash" unicode="/" horiz-adv-x="500" 
d="M-18 -128l472 926h49l-472 -926h-49z" />
    <glyph glyph-name="backslash" unicode="\" horiz-adv-x="500" 
d="M469 -128l-472 926h49l472 -926h-49z" />
    <glyph glyph-name="bar" unicode="|" horiz-adv-x="286" 
d="M121 -128v926h44v-926h-44z" />
    <glyph glyph-name="parenleft" unicode="(" horiz-adv-x="430" 
d="M348 -141c-176 100 -277 247 -277 428s101 328 277 428l21 -33c-158 -97 -246 -228 -246 -395s88 -298 246 -395z" />
    <glyph glyph-name="parenright" unicode=")" horiz-adv-x="430" 
d="M82 -141l-21 33c158 97 246 228 246 395s-88 298 -246 395l21 33c176 -100 277 -247 277 -428s-101 -328 -277 -428z" />
    <glyph glyph-name="bracketleft" unicode="[" horiz-adv-x="430" 
d="M98 -130v830h273v-38h-227v-754h227v-38h-273z" />
    <glyph glyph-name="bracketright" unicode="]" horiz-adv-x="430" 
d="M59 -130v38h227v754h-227v38h273v-830h-273z" />
    <glyph glyph-name="braceleft" unicode="{" horiz-adv-x="480" 
d="M416 -141c-179 34 -211 99 -211 203v79c0 78 -26 127 -120 127h-26v38h26c94 0 120 49 120 127v79c0 104 32 169 211 203l7 -32c-153 -39 -169 -76 -169 -177v-75c0 -89 -41 -125 -104 -144c67 -22 104 -55 104 -144v-75c0 -101 16 -138 169 -177z" />
    <glyph glyph-name="braceright" unicode="}" horiz-adv-x="480" 
d="M64 -141l-7 32c153 39 169 76 169 177v75c0 89 41 125 104 144c-67 22 -104 55 -104 144v75c0 101 -16 138 -169 177l7 32c179 -34 211 -99 211 -203v-79c0 -78 26 -127 120 -127h26v-38h-26c-94 0 -120 -49 -120 -127v-79c0 -104 -32 -169 -211 -203z" />
    <glyph glyph-name="at" unicode="@" horiz-adv-x="980" 
d="M499 -162c-256 0 -446 197 -446 436s193 438 438 438s436 -185 436 -396c0 -171 -97 -243 -182 -243c-70 0 -119 36 -136 93c-41 -51 -92 -93 -171 -93c-97 0 -177 72 -177 178c0 143 121 249 233 249c81 0 126 -45 149 -89l14 75l48 -6l-37 -211c-6 -35 -9 -60 -9 -72
c0 -57 33 -88 90 -88c70 0 144 62 144 207c0 183 -172 364 -402 364c-231 0 -404 -183 -404 -406c0 -224 171 -404 412 -404c100 0 173 23 250 68l15 -25c-77 -47 -161 -75 -265 -75zM446 120c44 0 87 21 119 53c37 37 61 88 61 140c0 79 -56 139 -132 139
c-44 0 -88 -20 -122 -54c-35 -35 -59 -86 -59 -143c0 -85 55 -135 133 -135z" />
    <glyph glyph-name="copyright" unicode="&#xa9;" horiz-adv-x="830" 
d="M414 -12c-203 0 -361 163 -361 360v2c0 197 160 362 363 362s361 -163 361 -360v-2c0 -197 -160 -362 -363 -362zM414 16c190 0 333 151 333 334v2c0 183 -142 332 -331 332c-190 0 -333 -151 -333 -334v-2c0 -183 142 -332 331 -332zM419 166c-103 0 -182 85 -182 188v2
c0 102 80 189 183 189c65 0 104 -26 141 -61l-30 -31c-29 28 -65 52 -112 52c-79 0 -138 -67 -138 -148v-2c0 -81 62 -149 139 -149c49 0 80 19 115 52l28 -28c-39 -38 -79 -64 -144 -64z" />
    <glyph glyph-name="published" unicode="&#x2117;" horiz-adv-x="830" 
d="M414 -12c-203 0 -361 163 -361 360v2c0 197 160 362 363 362s361 -163 361 -360v-2c0 -197 -160 -362 -363 -362zM414 16c190 0 333 151 333 334v2c0 183 -142 332 -331 332c-190 0 -333 -151 -333 -334v-2c0 -183 142 -332 331 -332zM296 175v366h141
c86 0 143 -41 143 -115v-2c0 -82 -71 -121 -150 -121h-90v-128h-44zM340 344h91c63 0 104 28 104 78v2c0 52 -39 76 -101 76h-94v-156z" />
    <glyph glyph-name="registered.alt" horiz-adv-x="830" 
d="M414 -12c-203 0 -361 163 -361 360v2c0 197 160 362 363 362s361 -163 361 -360v-2c0 -197 -160 -362 -363 -362zM414 16c190 0 333 151 333 334v2c0 183 -142 332 -331 332c-190 0 -333 -151 -333 -334v-2c0 -183 142 -332 331 -332zM276 177v366h164
c45 0 84 -14 107 -37c16 -16 28 -40 28 -68v-2c0 -59 -41 -94 -100 -105l122 -154h-56l-116 147h-106v-147h-43zM319 364h114c55 0 97 24 97 70v2c0 40 -35 66 -92 66h-119v-138z" />
    <glyph glyph-name="registered" unicode="&#xae;" horiz-adv-x="416" 
d="M208 360c-98 0 -174 79 -174 174v1c0 95 77 175 174 175c98 0 174 -79 174 -174v-1c0 -95 -77 -175 -174 -175zM208 379c87 0 154 71 154 156v1c0 85 -66 155 -154 155c-87 0 -154 -71 -154 -156v-1c0 -85 66 -155 154 -155zM143 451v175h78c36 0 65 -19 65 -54
c0 -29 -19 -46 -43 -53l49 -68h-35l-44 64h-42v-64h-28zM171 538h47c25 0 39 13 39 32c0 21 -15 31 -39 31h-47v-63z" />
    <glyph glyph-name="servicemark" unicode="&#x2120;" horiz-adv-x="708" 
d="M351 392v308h37l120 -183l120 183h36v-308h-35v246l-119 -178h-5l-119 178v-246h-35zM164 387c-49 0 -93 17 -130 50l22 26c32 -29 67 -44 109 -44c43 0 72 23 72 55c0 29 -19 44 -83 58c-71 15 -106 37 -106 88c0 49 46 85 107 85c42 0 77 -12 110 -38l-21 -26
c-28 22 -57 32 -90 32c-43 0 -70 -22 -70 -51c0 -28 16 -44 85 -59c68 -15 104 -39 104 -87c0 -54 -49 -89 -109 -89z" />
    <glyph glyph-name="trademark" unicode="&#x2122;" horiz-adv-x="690" 
d="M333 392v308h37l120 -183l120 183h36v-308h-35v246l-119 -178h-5l-119 178v-246h-35zM127 392v274h-101v34h237v-34h-101v-274h-35z" />
    <glyph glyph-name="asterisk" unicode="*" horiz-adv-x="430" 
d="M194 406l9 127l-106 -72l-22 37l118 56l-118 56l22 37l106 -72l-9 127h42l-9 -127l106 72l22 -37l-118 -56l118 -56l-22 -37l-106 72l9 -127h-42z" />
    <glyph glyph-name="dagger" unicode="&#x2020;" horiz-adv-x="410" 
d="M183 238l5 286l-125 -7v45l124 -7l-7 145h50l-7 -145l124 7v-45l-125 7l5 -286h-44z" />
    <glyph glyph-name="daggerdbl" unicode="&#x2021;" horiz-adv-x="430" 
d="M190 0l7 145l-124 -7v45l125 -7l-5 174l5 174l-125 -7v45l124 -7l-7 145h50l-7 -145l124 7v-45l-125 7l5 -174l-5 -174l125 7v-45l-124 7l7 -145h-50z" />
    <glyph glyph-name="dollar" unicode="$" horiz-adv-x="632" 
d="M538 616l-33 -39c-53 46 -104 69 -162 76v-281c152 -32 216 -89 216 -187c0 -106 -89 -181 -214 -185v-98h-48v99c-91 8 -165 43 -237 107l33 39c62 -59 124 -93 206 -101v285c-150 33 -212 88 -212 188c0 101 88 178 210 181v58h48v-60c77 -7 133 -34 193 -82zM508 181
c0 68 -33 110 -165 140v-276c100 2 165 60 165 136zM138 523c0 -67 30 -109 161 -141v273c-97 -2 -161 -60 -161 -132z" />
    <glyph glyph-name="sterling" unicode="&#xa3;" horiz-adv-x="644" 
d="M70 0v25l86 20v260h-86v48h86v118c0 75 23 139 65 181c37 37 89 58 150 58c104 0 164 -46 210 -106l-40 -31c-41 51 -87 90 -171 90c-48 0 -85 -15 -113 -43c-33 -33 -50 -84 -50 -148v-119h298v-48h-298v-258h374v-47h-511z" />
    <glyph glyph-name="Euro" unicode="&#x20ac;" horiz-adv-x="720" 
d="M661 572l-40 -27c-54 78 -107 121 -202 121c-101 0 -182 -84 -214 -202h283v-48h-294c-3 -21 -4 -43 -4 -65c0 -20 1 -40 3 -58h295v-48h-287c31 -126 117 -211 230 -211c87 0 145 52 194 128l38 -25c-54 -83 -124 -149 -235 -149c-138 0 -245 104 -279 257h-90v48h82
c-2 18 -2 36 -2 56c0 23 1 45 4 67h-84v48h94c36 142 139 248 268 248c117 0 187 -60 240 -140z" />
    <glyph glyph-name="yen" unicode="&#xa5;" horiz-adv-x="686" 
d="M105 268v45h195l-268 387h63l249 -373l250 373h60l-269 -387h196v-45h-213v-98h213v-45h-213v-125h-50v125h-213v45h213v98h-213z" />
    <glyph glyph-name="cent" unicode="&#xa2;" horiz-adv-x="581" 
d="M403 706l-18 -91c53 -13 98 -42 141 -87l-35 -36c-38 39 -74 66 -117 77l-85 -432c11 -2 23 -3 36 -3c72 0 128 37 171 85l34 -30c-52 -59 -114 -101 -208 -101c-14 0 -27 1 -39 3l-19 -97h-50l21 109c-101 36 -173 135 -173 250v2c0 143 114 267 260 267h14l17 84h50z
M115 355c0 -94 54 -173 131 -205l84 426h-9c-116 0 -206 -97 -206 -219v-2z" />
    <glyph glyph-name="baht" unicode="&#xe3f;" horiz-adv-x="630" 
d="M355 779h46l-15 -84c96 -18 158 -80 158 -168c0 -100 -64 -147 -128 -169c88 -21 158 -71 158 -168c0 -118 -96 -190 -240 -190h-70l-21 -118h-46l21 118h-118v700h241zM326 332h-6l-51 -287h66c117 0 190 53 190 143c0 93 -71 144 -199 144zM149 374h137l49 281h-186
v-281zM495 521c0 69 -44 116 -120 130l-48 -277c102 2 168 55 168 147zM149 45h79l51 287h-130v-287z" />
    <glyph glyph-name="colonmonetary" unicode="&#x20a1;" horiz-adv-x="600" 
d="M475 779h44l-21 -118c19 -11 36 -25 53 -39l-29 -36c-12 10 -23 20 -35 28l-100 -571c54 8 96 34 141 76l28 -33c-48 -45 -102 -79 -174 -87l-21 -117h-44l20 116c-34 1 -67 7 -97 19l-24 -135h-44l27 156c-88 56 -144 165 -144 308v7c0 196 111 331 261 348l14 78h44
l-14 -76c38 -2 70 -9 98 -21zM104 347c0 -118 42 -208 107 -260l99 570c-118 -20 -206 -133 -206 -303v-7zM246 65c31 -17 65 -25 102 -25l104 596c-29 15 -62 23 -102 24z" />
    <glyph glyph-name="florin" unicode="&#x192;" horiz-adv-x="506" 
d="M90 -5c-21 0 -36 2 -49 4v44c15 -3 27 -4 46 -4c43 0 72 26 82 82l49 263h-109v45h117l26 136c19 99 63 140 143 140c32 0 51 -3 75 -10v-44c-24 6 -49 10 -70 10c-55 0 -82 -28 -95 -99l-25 -133h155v-45h-163l-50 -266c-16 -83 -57 -123 -132 -123z" />
    <glyph glyph-name="naira" unicode="&#x20a6;" horiz-adv-x="820" 
d="M769 238h-98v-238h-69l-148 238h-257v-238h-48v238h-98v42h98v144h-98v42h98v234h75l145 -234h254v234h48v-234h98v-42h-98v-144h98v-42zM197 424v-144h234l-90 144h-144zM392 424l90 -144h141v144h-231zM197 654v-190h119zM507 240l116 -185v185h-116z" />
    <glyph glyph-name="peso" unicode="&#x20b1;" horiz-adv-x="710" 
d="M136 0v457h-97v43h97v200h187c148 0 252 -74 259 -200h99v-43h-99c-9 -136 -132 -206 -272 -206h-122v-251h-52zM313 298c125 0 211 62 218 160h-344v-160h126zM187 653v-154h344c-8 101 -91 154 -212 154h-132z" />
    <glyph glyph-name="R_p" horiz-adv-x="1180" 
d="M683 -160v674h48v-110c37 65 96 121 183 121c108 0 218 -97 218 -264v-7c0 -166 -110 -265 -218 -265c-87 0 -147 56 -183 118v-267h-48zM85 0v700h232c146 0 238 -84 238 -203v-2c0 -111 -77 -181 -177 -203l203 -292h-62l-196 284h-189v-284h-49zM909 33
c94 0 173 81 173 220v7c0 137 -82 221 -173 221c-90 0 -181 -86 -181 -219v-9c0 -134 91 -220 181 -220zM134 328h178c113 0 193 62 193 165v2c0 100 -72 159 -191 159h-180v-326z" />
    <glyph glyph-name="rupee" unicode="&#x20a8;" horiz-adv-x="1070" 
d="M85 0v700h232c146 0 238 -84 238 -203v-2c0 -111 -77 -181 -177 -203l203 -292h-62l-196 284h-189v-284h-49zM134 328h178c113 0 193 62 193 165v2c0 100 -72 159 -191 159h-180v-326zM839 -10c-73 0 -145 30 -197 72l29 38c54 -42 105 -65 171 -65c67 0 122 37 122 95v2
c0 45 -29 71 -128 103c-120 38 -170 76 -170 148v2c0 79 71 136 163 136c65 0 125 -24 173 -57l-25 -41c-45 31 -95 53 -150 53c-67 0 -112 -39 -112 -89v-2c0 -46 34 -72 136 -104c117 -36 162 -75 162 -147v-2c0 -87 -79 -142 -174 -142z" />
    <glyph glyph-name="won" unicode="&#x20a9;" horiz-adv-x="1100" 
d="M1010 700l-68 -234h115v-41h-127l-42 -146h169v-41h-181l-70 -241h-60l-73 241h-246l-73 -241h-60l-70 241h-181v41h169l-42 146h-127v41h115l-68 234h56l65 -234h238l70 236h66l68 -236h239l66 234h52zM482 425l-42 -146h220l-43 146h-135zM222 425l39 -146h134l42 146
h-215zM666 425l42 -146h133l39 146h-214zM325 44h4l55 194h-112zM775 44h4l51 194h-111zM548 648l-54 -182h111l-53 182h-4z" />
    <glyph glyph-name="sheqel" unicode="&#x20aa;" horiz-adv-x="620" 
d="M238 139l-34 210h46l33 -199c11 -70 44 -105 114 -105h98v465h47v-510h-146c-95 0 -143 46 -158 139zM355 358c0 77 -37 107 -114 107h-116v-465h-47v510h164c106 0 158 -43 158 -150v-189h-45v187z" />
    <glyph glyph-name="numbersign" unicode="#" horiz-adv-x="700" 
d="M610 234v-47h-137l-32 -187h-48l32 187h-207l-32 -187h-48l32 187h-121v47h129l40 236h-129v47h137l32 183h48l-31 -183h207l31 183h48l-32 -183h121v-47h-129l-40 -236h129zM266 470l-40 -236h207l40 236h-207z" />
    <glyph glyph-name="paragraph" unicode="&#xb6;" horiz-adv-x="480" 
d="M333 0v277h-6c-154 0 -274 76 -274 211v2c0 131 108 210 259 210h74v-700h-53z" />
    <glyph glyph-name="section" unicode="&#xa7;" horiz-adv-x="632" 
d="M419 222c52 -23 86 -59 86 -105v-2c0 -75 -70 -125 -176 -125c-89 0 -172 39 -227 95l38 36c46 -47 114 -82 194 -82c79 0 116 34 116 77v2c0 43 -46 73 -183 106c-149 36 -202 74 -202 139v2c0 59 58 102 148 113c-52 23 -86 59 -86 105v2c0 75 70 125 176 125
c89 0 172 -39 227 -95l-38 -36c-46 47 -114 82 -194 82c-79 0 -116 -34 -116 -77v-2c0 -43 46 -73 183 -106c149 -36 202 -74 202 -139v-2c0 -59 -58 -102 -148 -113zM386 253c78 0 129 38 129 78v2c0 36 -32 67 -157 98c-48 12 -84 16 -112 16c-78 0 -129 -38 -129 -78v-2
c0 -36 32 -67 157 -98c47 -12 84 -16 112 -16z" />
    <glyph glyph-name="ordfeminine" unicode="&#xaa;" horiz-adv-x="390" 
d="M174 411c-53 0 -109 30 -109 90v2c0 59 51 93 124 93c36 0 60 -5 83 -11v5c0 51 -32 77 -83 77c-32 0 -58 -10 -88 -24l-13 34c34 16 64 26 103 26c38 0 68 -10 90 -32c18 -18 28 -45 28 -80v-174h-37v41c-22 -29 -56 -47 -98 -47zM176 447c51 0 96 31 96 77v27
c-23 7 -48 11 -85 11c-51 0 -82 -24 -82 -57v-2c0 -36 33 -56 71 -56zM62 293v40h252v-40h-252z" />
    <glyph glyph-name="ordmasculine" unicode="&#xba;" horiz-adv-x="390" 
d="M194 411c-83 0 -143 67 -143 145v2c0 79 61 147 145 147c83 0 143 -67 143 -145v-2c0 -79 -61 -147 -145 -147zM51 293v40h288v-40h-288zM196 450c59 0 100 48 100 106v2c0 60 -44 108 -102 108c-59 0 -100 -48 -100 -106v-2c0 -60 44 -108 102 -108z" />
    <glyph glyph-name="degree" unicode="&#xb0;" horiz-adv-x="450" 
d="M225 412c-79 0 -151 68 -151 146v2c0 78 72 146 151 146s151 -68 151 -146v-2c0 -78 -72 -146 -151 -146zM225 456c58 0 101 49 101 102v2c0 53 -43 102 -101 102s-101 -49 -101 -102v-2c0 -53 43 -102 101 -102z" />
    <glyph glyph-name="percent" unicode="%" horiz-adv-x="824" 
d="M208 350c-92 0 -153 84 -153 177v2c0 94 62 179 155 179c92 0 153 -85 153 -177v-2c0 -94 -62 -179 -155 -179zM208 665c-59 0 -101 -61 -101 -134v-2c0 -79 47 -136 103 -136c59 0 101 59 101 134v2c0 78 -47 136 -103 136zM393 360l249 340h54l-267 -363l-247 -337h-54
zM614 -8c-92 0 -153 84 -153 177v2c0 94 62 179 155 179c92 0 153 -85 153 -177v-2c0 -94 -62 -179 -155 -179zM616 35c59 0 101 59 101 134v2c0 78 -47 136 -103 136c-59 0 -101 -61 -101 -134v-2c0 -79 47 -136 103 -136z" />
    <glyph glyph-name="perthousand" unicode="&#x2030;" horiz-adv-x="1200" 
d="M210 393c59 0 101 59 101 134v2c0 78 -47 136 -103 136c-59 0 -101 -61 -101 -134v-2c0 -79 47 -136 103 -136zM208 350c-92 0 -153 84 -153 177v2c0 94 62 179 155 179c92 0 153 -85 153 -177v-2c0 -94 -62 -179 -155 -179zM696 700l-267 -363l-247 -337h-54l265 360
l249 340h54zM616 35c59 0 101 59 101 134v2c0 78 -47 136 -103 136c-59 0 -101 -61 -101 -134v-2c0 -79 47 -136 103 -136zM614 -8c-92 0 -153 84 -153 177v2c0 94 62 179 155 179c92 0 153 -85 153 -177v-2c0 -94 -62 -179 -155 -179zM992 35c59 0 101 59 101 134v2
c0 78 -47 136 -103 136c-59 0 -101 -61 -101 -134v-2c0 -79 47 -136 103 -136zM990 -8c-92 0 -153 84 -153 177v2c0 94 62 179 155 179c92 0 153 -85 153 -177v-2c0 -94 -62 -179 -155 -179z" />
    <glyph glyph-name="quotedbl" unicode="&#x22;" horiz-adv-x="410" 
d="M248 446l35 254h65v-5l-71 -249h-29zM68 446l35 254h65v-5l-71 -249h-29z" />
    <glyph glyph-name="quotesingle" unicode="'" horiz-adv-x="230" 
d="M68 446l35 254h65v-5l-71 -249h-29z" />
    <glyph glyph-name="plus" unicode="+" horiz-adv-x="620" 
d="M285 113v215h-217v48h217v215h50v-215h217v-48h-217v-215h-50z" />
    <glyph glyph-name="minus" unicode="&#x2212;" horiz-adv-x="620" 
d="M552 327h-484v50h484v-50z" />
    <glyph glyph-name="divide" unicode="&#xf7;" horiz-adv-x="620" 
d="M270 500v89h80v-89h-80zM552 328h-484v48h484v-48zM270 115v89h80v-89h-80z" />
    <glyph glyph-name="equal" unicode="=" horiz-adv-x="620" 
d="M83 439v51h454v-51h-454zM83 214v51h454v-51h-454z" />
    <glyph glyph-name="multiply" unicode="&#xd7;" horiz-adv-x="620" 
d="M490 136l-181 183l-181 -183l-34 34l183 181l-183 181l36 36l181 -183l181 183l34 -34l-183 -181l183 -181z" />
    <glyph glyph-name="less" unicode="&#x3c;" horiz-adv-x="620" 
d="M527 91l-464 241v40l464 241v-54l-403 -206l403 -208v-54z" />
    <glyph glyph-name="greater" unicode="&#x3e;" horiz-adv-x="620" 
d="M93 91v54l403 206l-403 208v54l464 -241v-40z" />
    <glyph glyph-name="plusminus" unicode="&#xb1;" horiz-adv-x="620" 
d="M542 358h-207v-203h-50v203h-207v48h207v203h50v-203h207v-48zM542 0h-464v48h464v-48z" />
    <glyph glyph-name="onehalf" unicode="&#xbd;" horiz-adv-x="825" 
d="M496 0v33l149 132c55 48 80 80 80 121c0 43 -35 75 -82 75c-45 0 -79 -24 -110 -72l-30 18c33 53 75 89 143 89c67 0 119 -48 119 -108c0 -55 -30 -90 -93 -145l-122 -106h219v-37h-273zM130 0l246 356l231 344h43l-246 -356l-231 -344h-43zM199 314h-39v352l-90 -34
l-9 35l105 40h33v-393z" />
    <glyph glyph-name="onehalf.alt" horiz-adv-x="900" 
d="M571 0v33l149 132c55 48 80 80 80 121c0 43 -35 75 -82 75c-45 0 -79 -24 -110 -72l-30 18c33 53 75 89 143 89c67 0 119 -48 119 -108c0 -55 -30 -90 -93 -145l-122 -106h219v-37h-273zM210 0l246 356l231 344h43l-246 -356l-231 -344h-43zM342 314h-269v34h119v318
l-105 -37l-9 35l120 43h33v-359h111v-34z" />
    <glyph glyph-name="onethird" unicode="&#x2153;" horiz-adv-x="825" 
d="M633 -10c-63 0 -111 30 -143 74l29 24c31 -42 68 -63 115 -63c49 0 89 33 89 81c0 51 -49 80 -112 80h-28l-8 24l133 139h-198v37h248v-32l-128 -134c74 -6 133 -42 133 -114c0 -69 -61 -116 -130 -116zM117 0l246 356l231 344h43l-246 -356l-231 -344h-43zM199 314h-39
v352l-90 -34l-9 35l105 40h33v-393z" />
    <glyph glyph-name="onethird.alt" horiz-adv-x="900" 
d="M708 -10c-63 0 -111 30 -143 74l29 24c31 -42 68 -63 115 -63c49 0 89 33 89 81c0 51 -49 80 -112 80h-28l-8 24l133 139h-198v37h248v-32l-128 -134c74 -6 133 -42 133 -114c0 -69 -61 -116 -130 -116zM200 0l246 356l231 344h43l-246 -356l-231 -344h-43zM342 314h-269
v34h119v318l-105 -37l-9 35l120 43h33v-359h111v-34z" />
    <glyph glyph-name="twothirds" unicode="&#x2154;" horiz-adv-x="900" 
d="M708 -10c-63 0 -111 30 -143 74l29 24c31 -42 68 -63 115 -63c49 0 89 33 89 81c0 51 -49 80 -112 80h-28l-8 24l133 139h-198v37h248v-32l-128 -134c74 -6 133 -42 133 -114c0 -69 -61 -116 -130 -116zM190 0l246 356l231 344h43l-246 -356l-231 -344h-43zM51 314v33
l149 132c55 48 80 80 80 121c0 43 -35 75 -82 75c-45 0 -79 -24 -110 -72l-30 18c33 53 75 89 143 89c67 0 119 -48 119 -108c0 -55 -30 -90 -93 -145l-122 -106h219v-37h-273z" />
    <glyph glyph-name="onequarter" unicode="&#xbc;" horiz-adv-x="825" 
d="M720 89v-91h-37v91h-190l-12 32l194 271h45v-269h55v-34h-55zM140 0l246 356l231 344h43l-246 -356l-231 -344h-43zM199 314h-39v352l-90 -34l-9 35l105 40h33v-393zM683 123v219l-158 -219h158z" />
    <glyph glyph-name="onequarter.alt" horiz-adv-x="900" 
d="M795 89v-91h-37v91h-190l-12 32l194 271h45v-269h55v-34h-55zM215 0l246 356l231 344h43l-246 -356l-231 -344h-43zM342 314h-269v34h119v318l-105 -37l-9 35l120 43h33v-359h111v-34zM758 123v219l-158 -219h158z" />
    <glyph glyph-name="threequarters" unicode="&#xbe;" horiz-adv-x="900" 
d="M795 89v-91h-37v91h-190l-12 32l194 271h45v-269h55v-34h-55zM198 304c-63 0 -111 30 -143 74l29 24c31 -42 68 -63 115 -63c49 0 89 33 89 81c0 51 -49 80 -112 80h-28l-8 24l133 139h-198v37h248v-32l-128 -134c74 -6 133 -42 133 -114c0 -69 -61 -116 -130 -116z
M210 0l246 356l231 344h43l-246 -356l-231 -344h-43zM758 123v219l-158 -219h158z" />
    <glyph glyph-name="onefifth" unicode="&#x2155;" horiz-adv-x="825" 
d="M632 -10c-55 0 -104 28 -139 68l28 26c33 -38 70 -59 112 -59c61 0 100 40 100 89c0 52 -42 83 -99 83c-33 0 -62 -9 -90 -22l-27 16l13 195h225v-39h-192l-9 -130c25 11 51 17 83 17c75 0 136 -45 136 -117c0 -75 -63 -127 -141 -127zM122 0l246 356l231 344h43
l-246 -356l-231 -344h-43zM199 314h-39v352l-90 -34l-9 35l105 40h33v-393z" />
    <glyph glyph-name="onefifth.alt" horiz-adv-x="900" 
d="M707 -10c-55 0 -104 28 -139 68l28 26c33 -38 70 -59 112 -59c61 0 100 40 100 89c0 52 -42 83 -99 83c-33 0 -62 -9 -90 -22l-27 16l13 195h225v-39h-192l-9 -130c25 11 51 17 83 17c75 0 136 -45 136 -117c0 -75 -63 -127 -141 -127zM205 0l246 356l231 344h43
l-246 -356l-231 -344h-43zM342 314h-269v34h119v318l-105 -37l-9 35l120 43h33v-359h111v-34z" />
    <glyph glyph-name="twofifths" unicode="&#x2156;" horiz-adv-x="900" 
d="M707 -10c-55 0 -104 28 -139 68l28 26c33 -38 70 -59 112 -59c61 0 100 40 100 89c0 52 -42 83 -99 83c-33 0 -62 -9 -90 -22l-27 16l13 195h225v-39h-192l-9 -130c25 11 51 17 83 17c75 0 136 -45 136 -117c0 -75 -63 -127 -141 -127zM200 0l246 356l231 344h43
l-246 -356l-231 -344h-43zM51 314v33l149 132c55 48 80 80 80 121c0 43 -35 75 -82 75c-45 0 -79 -24 -110 -72l-30 18c33 53 75 89 143 89c67 0 119 -48 119 -108c0 -55 -30 -90 -93 -145l-122 -106h219v-37h-273z" />
    <glyph glyph-name="threefifths" unicode="&#x2157;" horiz-adv-x="900" 
d="M707 -10c-55 0 -104 28 -139 68l28 26c33 -38 70 -59 112 -59c61 0 100 40 100 89c0 52 -42 83 -99 83c-33 0 -62 -9 -90 -22l-27 16l13 195h225v-39h-192l-9 -130c25 11 51 17 83 17c75 0 136 -45 136 -117c0 -75 -63 -127 -141 -127zM185 0l246 356l231 344h43
l-246 -356l-231 -344h-43zM188 304c-63 0 -111 30 -143 74l29 24c31 -42 68 -63 115 -63c49 0 89 33 89 81c0 51 -49 80 -112 80h-28l-8 24l133 139h-198v37h248v-32l-128 -134c74 -6 133 -42 133 -114c0 -69 -61 -116 -130 -116z" />
    <glyph glyph-name="fourfifths" unicode="&#x2158;" horiz-adv-x="900" 
d="M285 403v-91h-37v91h-190l-12 32l194 271h45v-269h55v-34h-55zM707 -10c-55 0 -104 28 -139 68l28 26c33 -38 70 -59 112 -59c61 0 100 40 100 89c0 52 -42 83 -99 83c-33 0 -62 -9 -90 -22l-27 16l13 195h225v-39h-192l-9 -130c25 11 51 17 83 17c75 0 136 -45 136 -117
c0 -75 -63 -127 -141 -127zM200 0l246 356l231 344h43l-246 -356l-231 -344h-43zM248 437v219l-158 -219h158z" />
    <glyph glyph-name="onesixth" unicode="&#x2159;" horiz-adv-x="825" 
d="M633 -9c-38 0 -72 15 -94 37c-26 26 -46 66 -46 150v2c0 127 64 216 154 216c49 0 79 -17 109 -48l-25 -27c-24 24 -50 40 -86 40c-61 0 -114 -72 -114 -171c23 30 54 55 109 55c68 0 125 -48 125 -124c0 -73 -58 -130 -132 -130zM130 0l246 356l231 344h43l-246 -356
l-231 -344h-43zM632 26c55 0 95 38 95 93s-36 91 -91 91s-97 -39 -97 -91c0 -54 43 -93 93 -93zM199 314h-39v352l-90 -34l-9 35l105 40h33v-393z" />
    <glyph glyph-name="onesixth.alt" horiz-adv-x="900" 
d="M708 -9c-38 0 -72 15 -94 37c-26 26 -46 66 -46 150v2c0 127 64 216 154 216c49 0 79 -17 109 -48l-25 -27c-24 24 -50 40 -86 40c-61 0 -114 -72 -114 -171c23 30 54 55 109 55c68 0 125 -48 125 -124c0 -73 -58 -130 -132 -130zM205 0l246 356l231 344h43l-246 -356
l-231 -344h-43zM707 26c55 0 95 38 95 93s-36 91 -91 91s-97 -39 -97 -91c0 -54 43 -93 93 -93zM342 314h-269v34h119v318l-105 -37l-9 35l120 43h33v-359h111v-34z" />
    <glyph glyph-name="fivesixths" unicode="&#x215a;" horiz-adv-x="900" 
d="M708 -9c-38 0 -72 15 -94 37c-26 26 -46 66 -46 150v2c0 127 64 216 154 216c49 0 79 -17 109 -48l-25 -27c-24 24 -50 40 -86 40c-61 0 -114 -72 -114 -171c23 30 54 55 109 55c68 0 125 -48 125 -124c0 -73 -58 -130 -132 -130zM187 304c-55 0 -104 28 -139 68l28 26
c33 -38 70 -59 112 -59c61 0 100 40 100 89c0 52 -42 83 -99 83c-33 0 -62 -9 -90 -22l-27 16l13 195h225v-39h-192l-9 -130c25 11 51 17 83 17c75 0 136 -45 136 -117c0 -75 -63 -127 -141 -127zM190 0l246 356l231 344h43l-246 -356l-231 -344h-43zM707 26
c55 0 95 38 95 93s-36 91 -91 91s-97 -39 -97 -91c0 -54 43 -93 93 -93z" />
    <glyph glyph-name="oneeighth" unicode="&#x215b;" horiz-adv-x="825" 
d="M635 -10c-81 0 -140 46 -140 112c0 47 33 79 75 97c-34 16 -63 46 -63 90c0 64 62 107 130 107c67 0 128 -44 128 -107c0 -44 -27 -73 -63 -90c43 -16 75 -51 75 -95c0 -68 -60 -114 -142 -114zM636 361c-53 0 -91 -29 -91 -72s38 -75 91 -75s91 32 91 75s-38 72 -91 72z
M636 182c-62 0 -103 -35 -103 -80s41 -77 103 -77s103 32 103 77s-41 80 -103 80zM130 0l246 356l231 344h43l-246 -356l-231 -344h-43zM199 314h-39v352l-90 -34l-9 35l105 40h33v-393z" />
    <glyph glyph-name="oneeighth.alt" horiz-adv-x="900" 
d="M710 -10c-81 0 -140 46 -140 112c0 47 33 79 75 97c-34 16 -63 46 -63 90c0 64 62 107 130 107c67 0 128 -44 128 -107c0 -44 -27 -73 -63 -90c43 -16 75 -51 75 -95c0 -68 -60 -114 -142 -114zM711 361c-53 0 -91 -29 -91 -72s38 -75 91 -75s91 32 91 75s-38 72 -91 72z
M711 182c-62 0 -103 -35 -103 -80s41 -77 103 -77s103 32 103 77s-41 80 -103 80zM205 0l246 356l231 344h43l-246 -356l-231 -344h-43zM342 314h-269v34h119v318l-105 -37l-9 35l120 43h33v-359h111v-34z" />
    <glyph glyph-name="threeeighths" unicode="&#x215c;" horiz-adv-x="900" 
d="M710 -10c-81 0 -140 46 -140 112c0 47 33 79 75 97c-34 16 -63 46 -63 90c0 64 62 107 130 107c67 0 128 -44 128 -107c0 -44 -27 -73 -63 -90c43 -16 75 -51 75 -95c0 -68 -60 -114 -142 -114zM711 361c-53 0 -91 -29 -91 -72s38 -75 91 -75s91 32 91 75s-38 72 -91 72z
M711 182c-62 0 -103 -35 -103 -80s41 -77 103 -77s103 32 103 77s-41 80 -103 80zM190 0l246 356l231 344h43l-246 -356l-231 -344h-43zM188 304c-63 0 -111 30 -143 74l29 24c31 -42 68 -63 115 -63c49 0 89 33 89 81c0 51 -49 80 -112 80h-28l-8 24l133 139h-198v37h248
v-32l-128 -134c74 -6 133 -42 133 -114c0 -69 -61 -116 -130 -116z" />
    <glyph glyph-name="fiveeighths" unicode="&#x215d;" horiz-adv-x="900" 
d="M710 -10c-81 0 -140 46 -140 112c0 47 33 79 75 97c-34 16 -63 46 -63 90c0 64 62 107 130 107c67 0 128 -44 128 -107c0 -44 -27 -73 -63 -90c43 -16 75 -51 75 -95c0 -68 -60 -114 -142 -114zM711 361c-53 0 -91 -29 -91 -72s38 -75 91 -75s91 32 91 75s-38 72 -91 72z
M711 182c-62 0 -103 -35 -103 -80s41 -77 103 -77s103 32 103 77s-41 80 -103 80zM190 0l246 356l231 344h43l-246 -356l-231 -344h-43zM187 304c-55 0 -104 28 -139 68l28 26c33 -38 70 -59 112 -59c61 0 100 40 100 89c0 52 -42 83 -99 83c-33 0 -62 -9 -90 -22l-27 16
l13 195h225v-39h-192l-9 -130c25 11 51 17 83 17c75 0 136 -45 136 -117c0 -75 -63 -127 -141 -127z" />
    <glyph glyph-name="seveneighths" unicode="&#x215e;" horiz-adv-x="900" 
d="M710 -10c-81 0 -140 46 -140 112c0 47 33 79 75 97c-34 16 -63 46 -63 90c0 64 62 107 130 107c67 0 128 -44 128 -107c0 -44 -27 -73 -63 -90c43 -16 75 -51 75 -95c0 -68 -60 -114 -142 -114zM711 361c-53 0 -91 -29 -91 -72s38 -75 91 -75s91 32 91 75s-38 72 -91 72z
M711 182c-62 0 -103 -35 -103 -80s41 -77 103 -77s103 32 103 77s-41 80 -103 80zM160 0l246 356l231 344h43l-246 -356l-231 -344h-43zM159 312h-45l176 349h-220v39h265v-29z" />
    <glyph glyph-name="zero.sup" unicode="&#x2070;" 
d="M199 416c-86 0 -139 86 -139 201v2c0 115 54 203 140 203s140 -86 140 -201v-2c0 -115 -55 -203 -141 -203zM199 787c-64 0 -100 -74 -100 -167v-2c0 -93 37 -167 101 -167s101 74 101 167v2c0 93 -38 167 -102 167z" />
    <glyph glyph-name="one.sup" unicode="&#xb9;" horiz-adv-x="325" 
d="M204 426h-39v352l-90 -34l-9 35l105 40h33v-393z" />
    <glyph glyph-name="one.sup_alt" 
d="M347 426h-269v34h119v318l-105 -37l-9 35l120 43h33v-359h111v-34z" />
    <glyph glyph-name="two.sup" unicode="&#xb2;" 
d="M61 426v33l149 132c55 48 80 80 80 121c0 43 -35 75 -82 75c-45 0 -79 -24 -110 -72l-30 18c33 53 75 89 143 89c67 0 119 -48 119 -108c0 -55 -30 -90 -93 -145l-122 -106h219v-37h-273z" />
    <glyph glyph-name="three.sup" unicode="&#xb3;" 
d="M198 416c-63 0 -111 30 -143 74l29 24c31 -42 68 -63 115 -63c49 0 89 33 89 81c0 51 -49 80 -112 80h-28l-8 24l133 139h-198v37h248v-32l-128 -134c74 -6 133 -42 133 -114c0 -69 -61 -116 -130 -116z" />
    <glyph glyph-name="four.sup" unicode="&#x2074;" 
d="M295 515v-91h-37v91h-190l-12 32l194 271h45v-269h55v-34h-55zM258 549v219l-158 -219h158z" />
    <glyph glyph-name="five.sup" unicode="&#x2075;" 
d="M197 416c-55 0 -104 28 -139 68l28 26c33 -38 70 -59 112 -59c61 0 100 40 100 89c0 52 -42 83 -99 83c-33 0 -62 -9 -90 -22l-27 16l13 195h225v-39h-192l-9 -130c25 11 51 17 83 17c75 0 136 -45 136 -117c0 -75 -63 -127 -141 -127z" />
    <glyph glyph-name="six.sup" unicode="&#x2076;" 
d="M198 417c-38 0 -72 15 -94 37c-26 26 -46 66 -46 150v2c0 127 64 216 154 216c49 0 79 -17 109 -48l-25 -27c-24 24 -50 40 -86 40c-61 0 -114 -72 -114 -171c23 30 54 55 109 55c68 0 125 -48 125 -124c0 -73 -58 -130 -132 -130zM197 452c55 0 95 38 95 93
s-36 91 -91 91s-97 -39 -97 -91c0 -54 43 -93 93 -93z" />
    <glyph glyph-name="seven.sup" unicode="&#x2077;" 
d="M159 424h-45l176 349h-220v39h265v-29z" />
    <glyph glyph-name="eight.sup" unicode="&#x2078;" 
d="M200 416c-81 0 -140 46 -140 112c0 47 33 79 75 97c-34 16 -63 46 -63 90c0 64 62 107 130 107c67 0 128 -44 128 -107c0 -44 -27 -73 -63 -90c43 -16 75 -51 75 -95c0 -68 -60 -114 -142 -114zM201 787c-53 0 -91 -29 -91 -72s38 -75 91 -75s91 32 91 75s-38 72 -91 72z
M201 608c-62 0 -103 -35 -103 -80s41 -77 103 -77s103 32 103 77s-41 80 -103 80z" />
    <glyph glyph-name="nine.sup" unicode="&#x2079;" 
d="M202 821c38 0 72 -15 94 -37c26 -26 46 -66 46 -150v-2c0 -131 -64 -216 -154 -216c-49 0 -83 18 -114 50l25 27c26 -26 50 -42 91 -42c61 0 114 68 114 167c-23 -30 -54 -55 -109 -55c-68 0 -125 48 -125 126c0 75 58 132 132 132zM199 598c55 0 97 39 97 93
c0 56 -43 95 -93 95c-55 0 -95 -38 -95 -95s36 -93 91 -93z" />
    <glyph glyph-name="zero.inf" unicode="&#x2080;" 
d="M199 -142c-86 0 -139 86 -139 201v2c0 115 54 203 140 203s140 -86 140 -201v-2c0 -115 -55 -203 -141 -203zM199 229c-64 0 -100 -74 -100 -167v-2c0 -93 37 -167 101 -167s101 74 101 167v2c0 93 -38 167 -102 167z" />
    <glyph glyph-name="one.inf" unicode="&#x2081;" horiz-adv-x="325" 
d="M204 -132h-39v352l-90 -34l-9 35l105 40h33v-393z" />
    <glyph glyph-name="one.inf_alt" 
d="M347 -132h-269v34h119v318l-105 -37l-9 35l120 43h33v-359h111v-34z" />
    <glyph glyph-name="two.inf" unicode="&#x2082;" 
d="M61 -132v33l149 132c55 48 80 80 80 121c0 43 -35 75 -82 75c-45 0 -79 -24 -110 -72l-30 18c33 53 75 89 143 89c67 0 119 -48 119 -108c0 -55 -30 -90 -93 -145l-122 -106h219v-37h-273z" />
    <glyph glyph-name="three.inf" unicode="&#x2083;" 
d="M198 -142c-63 0 -111 30 -143 74l29 24c31 -42 68 -63 115 -63c49 0 89 33 89 81c0 51 -49 80 -112 80h-28l-8 24l133 139h-198v37h248v-32l-128 -134c74 -6 133 -42 133 -114c0 -69 -61 -116 -130 -116z" />
    <glyph glyph-name="four.inf" unicode="&#x2084;" 
d="M295 -43v-91h-37v91h-190l-12 32l194 271h45v-269h55v-34h-55zM258 -9v219l-158 -219h158z" />
    <glyph glyph-name="five.inf" unicode="&#x2085;" 
d="M197 -142c-55 0 -104 28 -139 68l28 26c33 -38 70 -59 112 -59c61 0 100 40 100 89c0 52 -42 83 -99 83c-33 0 -62 -9 -90 -22l-27 16l13 195h225v-39h-192l-9 -130c25 11 51 17 83 17c75 0 136 -45 136 -117c0 -75 -63 -127 -141 -127z" />
    <glyph glyph-name="six.inf" unicode="&#x2086;" 
d="M198 -141c-38 0 -72 15 -94 37c-26 26 -46 66 -46 150v2c0 127 64 216 154 216c49 0 79 -17 109 -48l-25 -27c-24 24 -50 40 -86 40c-61 0 -114 -72 -114 -171c23 30 54 55 109 55c68 0 125 -48 125 -124c0 -73 -58 -130 -132 -130zM197 -106c55 0 95 38 95 93
s-36 91 -91 91s-97 -39 -97 -91c0 -54 43 -93 93 -93z" />
    <glyph glyph-name="seven.inf" unicode="&#x2087;" 
d="M159 -134h-45l176 349h-220v39h265v-29z" />
    <glyph glyph-name="eight.inf" unicode="&#x2088;" 
d="M200 -142c-81 0 -140 46 -140 112c0 47 33 79 75 97c-34 16 -63 46 -63 90c0 64 62 107 130 107c67 0 128 -44 128 -107c0 -44 -27 -73 -63 -90c43 -16 75 -51 75 -95c0 -68 -60 -114 -142 -114zM201 229c-53 0 -91 -29 -91 -72s38 -75 91 -75s91 32 91 75s-38 72 -91 72
zM201 50c-62 0 -103 -35 -103 -80s41 -77 103 -77s103 32 103 77s-41 80 -103 80z" />
    <glyph glyph-name="nine.inf" unicode="&#x2089;" 
d="M202 263c38 0 72 -15 94 -37c26 -26 46 -66 46 -150v-2c0 -131 -64 -216 -154 -216c-49 0 -83 18 -114 50l25 27c26 -26 50 -42 91 -42c61 0 114 68 114 167c-23 -30 -54 -55 -109 -55c-68 0 -125 48 -125 126c0 75 58 132 132 132zM199 40c55 0 97 39 97 93
c0 56 -43 95 -93 95c-55 0 -95 -38 -95 -95s36 -93 91 -93z" />
    <glyph glyph-name="zero.tab" horiz-adv-x="600" 
d="M299 -12c-138 0 -243 133 -243 358v6c0 225 107 360 245 360c137 0 243 -133 243 -358v-6c0 -225 -107 -360 -245 -360zM300 666c-108 0 -191 -115 -191 -312v-6c0 -197 82 -314 191 -314c108 0 191 115 191 312v6c0 197 -82 314 -191 314z" />
    <glyph glyph-name="one.tab" horiz-adv-x="600" 
d="M561 0h-470v48h219v601l-195 -67l-14 44l220 79h40v-657h200v-48z" />
    <glyph glyph-name="two.tab" horiz-adv-x="600" 
d="M531 0h-478v39l261 236c115 105 156 165 156 239c0 91 -74 150 -159 150c-90 0 -149 -49 -204 -136l-40 25c61 96 127 157 247 157c121 0 210 -83 210 -192v-2c0 -96 -52 -161 -175 -272l-215 -194h397v-50z" />
    <glyph glyph-name="three.tab" horiz-adv-x="600" 
d="M296 -12c-111 0 -189 51 -242 122l39 33c53 -68 115 -108 205 -108c93 0 179 61 179 161v2c0 92 -79 143 -195 143h-56l-19 34l249 276h-373v49h437v-47l-241 -266c137 1 252 -61 252 -187v-2c0 -128 -115 -210 -235 -210z" />
    <glyph glyph-name="three.tab_alt" horiz-adv-x="600" 
d="M296 -12c-106 0 -197 53 -249 129l41 27c49 -69 121 -111 210 -111c108 0 186 59 186 151s-76 146 -208 146h-69v46h75c107 0 189 53 189 148c0 85 -66 143 -171 143c-87 0 -150 -40 -199 -108l-39 23c53 78 132 130 240 130c130 0 221 -79 221 -186
c0 -96 -68 -148 -135 -171c84 -25 148 -77 148 -170c0 -109 -99 -197 -240 -197z" />
    <glyph glyph-name="four.tab" horiz-adv-x="600" 
d="M412 0v169h-358l-15 43l360 492h61v-491h104v-44h-104v-169h-48zM412 213v433l-317 -433h317z" />
    <glyph glyph-name="five.tab" horiz-adv-x="600" 
d="M298 -12c-104 0 -184 49 -242 112l38 35c59 -64 125 -101 206 -101c111 0 187 76 187 175v2c0 98 -76 166 -185 166c-67 0 -120 -20 -164 -43l-39 25l24 341h387v-50h-343l-19 -263c45 22 94 38 158 38c134 0 235 -87 235 -212v-2c0 -132 -107 -223 -243 -223z" />
    <glyph glyph-name="six.tab" horiz-adv-x="600" 
d="M319 440c121 0 225 -83 225 -218v-1c0 -134 -104 -233 -232 -233c-66 0 -127 26 -166 65c-55 55 -85 124 -85 273v4c0 220 105 382 278 382c73 0 127 -29 178 -73l-32 -39c-39 37 -88 66 -150 66c-142 0 -223 -152 -223 -329v-19c43 79 114 122 207 122zM311 33
c112 0 181 84 181 187c0 107 -75 175 -175 175c-120 0 -189 -84 -189 -178c0 -109 82 -184 183 -184z" />
    <glyph glyph-name="seven.tab" horiz-adv-x="600" 
d="M480 650h-406v50h464v-38l-319 -662h-57z" />
    <glyph glyph-name="eight.tab" horiz-adv-x="600" 
d="M300 -11c-141 0 -248 81 -248 196v3c0 82 64 145 149 174c-67 28 -126 81 -126 164v3c0 109 109 182 225 182s225 -73 225 -182v-3c0 -82 -59 -136 -126 -164c85 -29 149 -92 149 -174v-3c0 -115 -108 -196 -248 -196zM300 381c94 0 172 60 172 145v2
c0 80 -75 138 -172 138s-172 -58 -172 -138v-2c0 -85 78 -145 172 -145zM300 34c122 0 195 70 195 150v2c0 87 -87 151 -195 151s-195 -64 -195 -151v-2c0 -80 73 -150 195 -150z" />
    <glyph glyph-name="nine.tab" horiz-adv-x="600" 
d="M280 254c-121 0 -224 83 -224 221v1c0 137 104 236 232 236c66 0 127 -26 166 -65c55 -55 85 -124 85 -273v-4c0 -220 -105 -382 -278 -382c-73 0 -133 31 -188 78l32 39c50 -44 98 -71 160 -71c142 0 223 160 223 331v11c-44 -80 -116 -122 -208 -122zM289 667
c-112 0 -181 -85 -181 -190c0 -109 74 -178 174 -178c120 0 190 85 190 181c0 111 -82 187 -183 187z" />
    <glyph glyph-name="period.tab" horiz-adv-x="300" 
d="M109 0v95h82v-95h-82z" />
    <glyph glyph-name="comma.tab" horiz-adv-x="300" 
d="M100 -107l-12 25c43 22 59 44 56 82h-35v95h82v-84c0 -62 -31 -95 -91 -118z" />
    <glyph glyph-name="colon.tab" horiz-adv-x="300" 
d="M109 415v95h82v-95h-82zM109 0v95h82v-95h-82z" />
    <glyph glyph-name="semicolon.tab" horiz-adv-x="300" 
d="M109 415v95h82v-95h-82zM100 -107l-12 25c43 22 59 44 56 82h-35v95h82v-84c0 -62 -31 -95 -91 -118z" />
    <glyph glyph-name="twodotleader.tab" horiz-adv-x="600" 
d="M411 0v89h78v-89h-78zM111 0v89h78v-89h-78z" />
    <glyph glyph-name="periodcentered.tab" horiz-adv-x="300" 
d="M109 250v95h82v-95h-82z" />
    <glyph glyph-name="slash.tab" horiz-adv-x="600" 
d="M573 798l-511 -926h-50l511 926h50z" />
    <glyph glyph-name="bar.tab" horiz-adv-x="300" 
d="M128 -128v926h44v-926h-44z" />
    <glyph glyph-name="underscore.tab" horiz-adv-x="600" 
d="M-2 -160v44h604v-44h-604z" />
    <glyph glyph-name="dollar.tab" horiz-adv-x="600" 
d="M384 779l-10 -86c54 -12 102 -36 148 -72l-30 -40c-42 34 -83 56 -127 67l-34 -277c145 -32 209 -87 209 -188c0 -104 -94 -184 -228 -184c-8 0 -16 0 -23 1l-15 -118h-46l15 123c-76 13 -139 47 -189 95l31 38c49 -47 100 -78 166 -89l35 283c-142 32 -205 92 -205 190
c0 105 91 179 214 179c11 0 22 -1 33 -2l10 80h46zM490 180c0 74 -39 116 -165 144l-34 -280h24c107 0 175 61 175 136zM131 524c0 -64 33 -115 160 -145l34 275c-10 1 -21 2 -32 2c-97 0 -162 -54 -162 -132z" />
    <glyph glyph-name="sterling.tab" horiz-adv-x="600" 
d="M146 355v123c0 71 21 133 62 174c34 34 82 58 147 58c84 0 145 -40 188 -92l-37 -34c-37 45 -87 80 -151 80c-50 0 -84 -16 -111 -43c-31 -31 -48 -80 -48 -141v-125h277v-45h-277v-264h350v-46h-481v24l81 20v266h-82v45h82z" />
    <glyph glyph-name="Euro.tab" horiz-adv-x="600" 
d="M42 416v43h82c28 142 116 253 245 253c87 0 142 -44 183 -99l-37 -31c-40 55 -85 86 -147 86c-101 0 -170 -90 -195 -209h249v-43h-256c-2 -20 -3 -41 -3 -62v-6c0 -20 1 -39 3 -57h256v-43h-250c24 -122 91 -216 194 -216c71 0 113 34 155 89l33 -27
c-43 -60 -100 -106 -190 -106c-124 0 -215 104 -242 260h-80v43h74c-2 17 -2 36 -2 54v10c0 20 1 41 3 61h-75z" />
    <glyph glyph-name="yen.tab" horiz-adv-x="600" 
d="M92 160h184v110h-184v42h170l-237 388h59l217 -368l217 368h57l-238 -388h171v-42h-184v-110h184v-42h-184v-118h-48v118h-184v42z" />
    <glyph glyph-name="cent.tab" horiz-adv-x="600" 
d="M410 706l-19 -92c62 -14 108 -49 146 -90l-35 -34c-35 38 -72 69 -124 82l-88 -439c9 -1 19 -1 29 -1c82 0 144 41 189 92l33 -29c-53 -60 -127 -107 -225 -107c-11 0 -23 0 -33 2l-20 -96h-49l22 106c-106 34 -177 133 -177 250v2c0 142 114 270 266 270c6 0 12 0 18 -1
l18 85h49zM110 351c0 -100 55 -179 138 -208l87 435h-11c-125 0 -214 -102 -214 -225v-2z" />
    <glyph glyph-name="numbersign.tab" horiz-adv-x="600" 
d="M35 233h109l33 238h-109v45h115l26 184h44l-26 -184h192l26 184h44l-26 -184h102v-45h-108l-33 -238h108v-45h-115l-26 -188h-44l26 188h-192l-26 -188h-44l26 188h-102v45zM221 471l-34 -238h192l34 238h-192z" />
    <glyph glyph-name="paragraph.tab" horiz-adv-x="600" 
d="M426 0v277h-82c-154 0 -266 78 -266 209c0 135 111 214 275 214h126v-700h-53z" />
    <glyph glyph-name="section.tab" horiz-adv-x="600" 
d="M314 -10c-83 0 -163 35 -214 86l34 38c44 -43 108 -78 185 -78c68 0 107 33 107 75c0 48 -46 80 -150 108c-164 44 -216 84 -216 150c0 59 55 103 144 110c-51 26 -82 60 -82 106c0 75 71 125 164 125c83 0 163 -35 214 -86l-34 -38c-44 43 -108 78 -185 78
c-68 0 -107 -33 -107 -75c0 -48 46 -80 150 -108c164 -44 216 -84 216 -150c0 -59 -55 -103 -144 -110c51 -26 82 -60 82 -106c0 -75 -71 -125 -164 -125zM233 448c-77 2 -122 -35 -122 -76c0 -43 35 -72 140 -100c61 -16 83 -20 116 -20c77 -2 122 35 122 76
c0 43 -35 72 -140 100c-61 16 -86 19 -116 20z" />
    <glyph glyph-name="degree.tab" horiz-adv-x="600" 
d="M299 313c-109 0 -200 88 -200 197s93 197 202 197s200 -88 200 -197s-93 -197 -202 -197zM301 356c87 0 151 67 151 154s-66 154 -153 154s-151 -67 -151 -154s66 -154 153 -154z" />
    <glyph glyph-name="percent.tab" horiz-adv-x="600" 
d="M155 708c71 0 117 -73 117 -166v-4c0 -93 -46 -168 -117 -168s-117 73 -117 166v4c0 93 46 168 117 168zM445 330c71 0 117 -73 117 -166v-4c0 -93 -46 -168 -117 -168s-117 73 -117 166v4c0 93 46 168 117 168zM445 293c-50 0 -75 -61 -75 -128v-8
c0 -67 25 -128 75 -128s75 61 75 128v8c0 67 -25 128 -75 128zM155 671c-50 0 -75 -61 -75 -128v-8c0 -67 25 -128 75 -128s75 61 75 128v8c0 67 -25 128 -75 128zM467 700h42l-194 -358l-182 -342h-42l194 358z" />
    <glyph glyph-name="quotedbl.tab" horiz-adv-x="600" 
d="M348 446l65 254h66v-5l-101 -249h-30zM138 446l65 254h66v-5l-101 -249h-30z" />
    <glyph glyph-name="quotesingle.tab" horiz-adv-x="300" 
d="M93 446l65 254h66v-5l-101 -249h-30z" />
    <glyph glyph-name="plus.tab" horiz-adv-x="600" 
d="M532 328h-207v-213h-50v213h-207v48h207v213h50v-213h207v-48z" />
    <glyph glyph-name="minus.tab" horiz-adv-x="600" 
d="M532 327h-464v50h464v-50z" />
    <glyph glyph-name="divide.tab" horiz-adv-x="600" 
d="M260 500v89h80v-89h-80zM532 328h-464v48h464v-48zM260 115v89h80v-89h-80z" />
    <glyph glyph-name="equal.tab" horiz-adv-x="600" 
d="M515 438h-430v49h430v-49zM515 217h-430v49h430v-49z" />
    <glyph glyph-name="multiply.tab" horiz-adv-x="600" 
d="M480 136l-181 183l-181 -183l-34 34l183 181l-183 181l36 36l181 -183l181 183l34 -34l-183 -181l183 -181z" />
    <glyph glyph-name="less.tab" horiz-adv-x="600" 
d="M505 97l-438 236v38l438 236v-51l-383 -203l383 -205v-51z" />
    <glyph glyph-name="greater.tab" horiz-adv-x="600" 
d="M533 333l-438 -236v51l383 203l-383 205v51l438 -236v-38z" />
    <glyph glyph-name="plusminus.tab" horiz-adv-x="600" 
d="M532 358h-207v-203h-50v203h-207v48h207v203h50v-203h207v-48zM532 0h-464v48h464v-48z" />
    <glyph glyph-name="space" unicode=" " horiz-adv-x="300" 
 />
    <glyph glyph-name="uni00A0" unicode="&#xa0;" horiz-adv-x="300" 
 />
    <glyph glyph-name="emspace" unicode="&#x2003;" horiz-adv-x="1000" 
 />
    <glyph glyph-name="enspace" unicode="&#x2002;" horiz-adv-x="500" 
 />
    <glyph glyph-name="threeperemspace" unicode="&#x2004;" horiz-adv-x="333" 
 />
    <glyph glyph-name="fourperemspace" unicode="&#x2005;" horiz-adv-x="250" 
 />
    <glyph glyph-name="thinspace" unicode="&#x2009;" horiz-adv-x="133" 
 />
    <glyph glyph-name="hairspace" unicode="&#x200a;" horiz-adv-x="75" 
 />
    <glyph glyph-name="space.tab" horiz-adv-x="300" 
 />
    <glyph glyph-name="figurespace" unicode="&#x2007;" horiz-adv-x="600" 
 />
    <glyph glyph-name="NUL" horiz-adv-x="0" 
 />
    <glyph glyph-name="asciicircum" unicode="^" horiz-adv-x="500" 
d="M70 493l158 210h44l158 -210h-53l-128 167l-128 -167h-51z" />
    <glyph glyph-name="asciitilde" unicode="~" horiz-adv-x="460" 
d="M294 251c-19 0 -40 9 -65 20c-22 10 -46 21 -63 21c-24 0 -35 -12 -50 -50l-34 9c19 72 44 93 84 93c19 0 40 -9 65 -20c22 -10 46 -21 63 -21c24 0 35 12 50 50l34 -9c-19 -72 -44 -93 -84 -93z" />
    <glyph glyph-name="hfjslug" horiz-adv-x="694" 
d="M644 -200h-208l-8 14h-163l-8 -14h-207v303c18 0 32 14 32 32c0 17 -14 32 -32 32v554h100l30 79h334l29 -79h101v-921zM400 563v-172h15v78h38v14h-38v66h43v14h-58zM184 563v-172h15v79h47v-79h15v172h-15v-79h-47v79h-15zM460 394c5 -2 14 -4 21 -4c20 0 31 11 31 36
v137h-16v-137c0 -16 -5 -22 -16 -22c-6 0 -15 3 -20 5v-15zM371 465l-13 3c-2 -9 -5 -21 -8 -30h-1l-16 31c13 12 23 26 23 42c0 17 -9 31 -27 31c-17 0 -28 -14 -28 -31c0 -15 6 -24 14 -39c-15 -12 -23 -28 -23 -47c0 -22 12 -37 29 -37c13 0 23 9 29 24h1l12 -24l12 6
l-17 32c5 12 9 25 13 39zM523 323v-46h8v12l8 8l15 -20h10l-20 26l18 20h-10l-20 -24h-1v24h-8zM488 292l10 -15h9l-12 17c5 2 10 6 10 14c0 9 -7 15 -17 15h-20v-46h8v15h12zM426 276c14 0 24 11 24 24c0 12 -10 24 -24 24s-24 -12 -24 -24c0 -13 10 -24 24 -24zM370 301
l-13 22h-9l18 -29v-17h8v17l18 29h-9zM193 323v-46h34v7h-26v13h23v7h-23v12h26v7h-34zM132 323v-46h8v32l25 -32h7v46h-8v-32l-25 32h-7zM241 323l14 -47h8l11 34h1l11 -34h8l14 47h-8l-10 -35h-1l-11 35h-7l-11 -35h-1l-10 35h-8zM327 479c-7 13 -12 22 -12 32
c0 11 6 19 14 19s13 -8 13 -19c0 -12 -5 -21 -15 -32zM342 423c-5 -13 -12 -21 -20 -21c-9 0 -16 10 -16 25c0 13 7 26 16 35zM487 299h-11v17h11c6 0 10 -3 10 -8s-4 -9 -10 -9zM426 283c-10 0 -16 8 -16 17c0 8 6 17 16 17s16 -9 16 -17c0 -9 -6 -17 -16 -17z" />
    <glyph glyph-name="i.dot" horiz-adv-x="249" 
d="M94 643v67h61v-67h-61zM100 0v510h49v-510h-49z" />
    <glyph glyph-name="fraction" unicode="&#x2044;" horiz-adv-x="100" 
d="M-210 0l246 356l231 344h43l-246 -356l-231 -344h-43z" />
    <glyph glyph-name="zero.num" 
d="M199 304c-86 0 -139 86 -139 201v2c0 115 54 203 140 203s140 -86 140 -201v-2c0 -115 -55 -203 -141 -203zM199 675c-64 0 -100 -74 -100 -167v-2c0 -93 37 -167 101 -167s101 74 101 167v2c0 93 -38 167 -102 167z" />
    <glyph glyph-name="one.num" horiz-adv-x="325" 
d="M204 314h-39v352l-90 -34l-9 35l105 40h33v-393z" />
    <glyph glyph-name="one.num_alt" 
d="M347 314h-269v34h119v318l-105 -37l-9 35l120 43h33v-359h111v-34z" />
    <glyph glyph-name="two.num" 
d="M61 314v33l149 132c55 48 80 80 80 121c0 43 -35 75 -82 75c-45 0 -79 -24 -110 -72l-30 18c33 53 75 89 143 89c67 0 119 -48 119 -108c0 -55 -30 -90 -93 -145l-122 -106h219v-37h-273z" />
    <glyph glyph-name="three.num" 
d="M198 304c-63 0 -111 30 -143 74l29 24c31 -42 68 -63 115 -63c49 0 89 33 89 81c0 51 -49 80 -112 80h-28l-8 24l133 139h-198v37h248v-32l-128 -134c74 -6 133 -42 133 -114c0 -69 -61 -116 -130 -116z" />
    <glyph glyph-name="four.num" 
d="M295 403v-91h-37v91h-190l-12 32l194 271h45v-269h55v-34h-55zM258 437v219l-158 -219h158z" />
    <glyph glyph-name="five.num" 
d="M197 304c-55 0 -104 28 -139 68l28 26c33 -38 70 -59 112 -59c61 0 100 40 100 89c0 52 -42 83 -99 83c-33 0 -62 -9 -90 -22l-27 16l13 195h225v-39h-192l-9 -130c25 11 51 17 83 17c75 0 136 -45 136 -117c0 -75 -63 -127 -141 -127z" />
    <glyph glyph-name="six.num" 
d="M198 305c-38 0 -72 15 -94 37c-26 26 -46 66 -46 150v2c0 127 64 216 154 216c49 0 79 -17 109 -48l-25 -27c-24 24 -50 40 -86 40c-61 0 -114 -72 -114 -171c23 30 54 55 109 55c68 0 125 -48 125 -124c0 -73 -58 -130 -132 -130zM197 340c55 0 95 38 95 93
s-36 91 -91 91s-97 -39 -97 -91c0 -54 43 -93 93 -93z" />
    <glyph glyph-name="seven.num" 
d="M159 312h-45l176 349h-220v39h265v-29z" />
    <glyph glyph-name="eight.num" 
d="M200 304c-81 0 -140 46 -140 112c0 47 33 79 75 97c-34 16 -63 46 -63 90c0 64 62 107 130 107c67 0 128 -44 128 -107c0 -44 -27 -73 -63 -90c43 -16 75 -51 75 -95c0 -68 -60 -114 -142 -114zM201 675c-53 0 -91 -29 -91 -72s38 -75 91 -75s91 32 91 75s-38 72 -91 72z
M201 496c-62 0 -103 -35 -103 -80s41 -77 103 -77s103 32 103 77s-41 80 -103 80z" />
    <glyph glyph-name="nine.num" 
d="M202 709c38 0 72 -15 94 -37c26 -26 46 -66 46 -150v-2c0 -131 -64 -216 -154 -216c-49 0 -83 18 -114 50l25 27c26 -26 50 -42 91 -42c61 0 114 68 114 167c-23 -30 -54 -55 -109 -55c-68 0 -125 48 -125 126c0 75 58 132 132 132zM199 486c55 0 97 39 97 93
c0 56 -43 95 -93 95c-55 0 -95 -38 -95 -95s36 -93 91 -93z" />
    <glyph glyph-name="zero.den" 
d="M199 -10c-86 0 -139 86 -139 201v2c0 115 54 203 140 203s140 -86 140 -201v-2c0 -115 -55 -203 -141 -203zM199 361c-64 0 -100 -74 -100 -167v-2c0 -93 37 -167 101 -167s101 74 101 167v2c0 93 -38 167 -102 167z" />
    <glyph glyph-name="one.den" horiz-adv-x="325" 
d="M204 0h-39v352l-90 -34l-9 35l105 40h33v-393z" />
    <glyph glyph-name="one.den_alt" 
d="M347 0h-269v34h119v318l-105 -37l-9 35l120 43h33v-359h111v-34z" />
    <glyph glyph-name="two.den" 
d="M61 0v33l149 132c55 48 80 80 80 121c0 43 -35 75 -82 75c-45 0 -79 -24 -110 -72l-30 18c33 53 75 89 143 89c67 0 119 -48 119 -108c0 -55 -30 -90 -93 -145l-122 -106h219v-37h-273z" />
    <glyph glyph-name="three.den" 
d="M198 -10c-63 0 -111 30 -143 74l29 24c31 -42 68 -63 115 -63c49 0 89 33 89 81c0 51 -49 80 -112 80h-28l-8 24l133 139h-198v37h248v-32l-128 -134c74 -6 133 -42 133 -114c0 -69 -61 -116 -130 -116z" />
    <glyph glyph-name="four.den" 
d="M295 89v-91h-37v91h-190l-12 32l194 271h45v-269h55v-34h-55zM258 123v219l-158 -219h158z" />
    <glyph glyph-name="five.den" 
d="M197 -10c-55 0 -104 28 -139 68l28 26c33 -38 70 -59 112 -59c61 0 100 40 100 89c0 52 -42 83 -99 83c-33 0 -62 -9 -90 -22l-27 16l13 195h225v-39h-192l-9 -130c25 11 51 17 83 17c75 0 136 -45 136 -117c0 -75 -63 -127 -141 -127z" />
    <glyph glyph-name="six.den" 
d="M198 -9c-38 0 -72 15 -94 37c-26 26 -46 66 -46 150v2c0 127 64 216 154 216c49 0 79 -17 109 -48l-25 -27c-24 24 -50 40 -86 40c-61 0 -114 -72 -114 -171c23 30 54 55 109 55c68 0 125 -48 125 -124c0 -73 -58 -130 -132 -130zM197 26c55 0 95 38 95 93s-36 91 -91 91
s-97 -39 -97 -91c0 -54 43 -93 93 -93z" />
    <glyph glyph-name="seven.den" 
d="M159 -2h-45l176 349h-220v39h265v-29z" />
    <glyph glyph-name="eight.den" 
d="M200 -10c-81 0 -140 46 -140 112c0 47 33 79 75 97c-34 16 -63 46 -63 90c0 64 62 107 130 107c67 0 128 -44 128 -107c0 -44 -27 -73 -63 -90c43 -16 75 -51 75 -95c0 -68 -60 -114 -142 -114zM201 361c-53 0 -91 -29 -91 -72s38 -75 91 -75s91 32 91 75s-38 72 -91 72z
M201 182c-62 0 -103 -35 -103 -80s41 -77 103 -77s103 32 103 77s-41 80 -103 80z" />
    <glyph glyph-name="nine.den" 
d="M202 395c38 0 72 -15 94 -37c26 -26 46 -66 46 -150v-2c0 -131 -64 -216 -154 -216c-49 0 -83 18 -114 50l25 27c26 -26 50 -42 91 -42c61 0 114 68 114 167c-23 -30 -54 -55 -109 -55c-68 0 -125 48 -125 126c0 75 58 132 132 132zM199 172c55 0 97 39 97 93
c0 56 -43 95 -93 95c-55 0 -95 -38 -95 -95s36 -93 91 -93z" />
    <glyph glyph-name="acute" unicode="&#xb4;" horiz-adv-x="500" 
d="M194 595l88 133l61 -30l-107 -103h-42z" />
    <glyph glyph-name="hungarumlaut" unicode="&#x2dd;" horiz-adv-x="500" 
d="M246 595l89 133l55 -29l-101 -104h-43zM110 595l89 133l55 -29l-101 -104h-43z" />
    <glyph glyph-name="caron.alt" horiz-adv-x="500" 
d="M211 581l17 149h61v-3l-49 -146h-29z" />
    <glyph glyph-name="grave" unicode="`" horiz-adv-x="500" 
d="M264 595l-107 103l61 30l88 -133h-42z" />
    <glyph glyph-name="circumflex" unicode="&#x2c6;" horiz-adv-x="500" 
d="M130 595l100 122h40l100 -122h-47l-74 68l-74 -68h-45z" />
    <glyph glyph-name="caron" unicode="&#x2c7;" horiz-adv-x="500" 
d="M370 717l-100 -122h-40l-100 122h47l74 -68l74 68h45z" />
    <glyph glyph-name="breve" unicode="&#x2d8;" horiz-adv-x="500" 
d="M250 593c-74 0 -128 42 -133 112h39c12 -37 42 -64 94 -64s82 27 94 64h39c-5 -70 -59 -112 -133 -112z" />
    <glyph glyph-name="tilde" unicode="&#x2dc;" horiz-adv-x="500" 
d="M314 595c-19 0 -40 9 -65 20c-22 10 -46 21 -63 21c-24 0 -35 -12 -50 -50l-34 9c19 72 44 93 84 93c19 0 40 -9 65 -20c22 -10 46 -21 63 -21c24 0 35 12 50 50l34 -9c-19 -72 -44 -93 -84 -93z" />
    <glyph glyph-name="macron" unicode="&#xaf;" horiz-adv-x="500" 
d="M103 621v47h294v-47h-294z" />
    <glyph glyph-name="dieresis" unicode="&#xa8;" horiz-adv-x="500" 
d="M297 595v80h69v-80h-69zM134 595v80h69v-80h-69z" />
    <glyph glyph-name="dotaccent" unicode="&#x2d9;" horiz-adv-x="500" 
d="M214 595v81h72v-81h-72z" />
    <glyph glyph-name="ring" unicode="&#x2da;" horiz-adv-x="500" 
d="M250 593c-57 0 -104 45 -104 100s47 100 104 100s104 -45 104 -100s-47 -100 -104 -100zM250 623c38 0 70 32 70 70s-32 70 -70 70s-70 -32 -70 -70s32 -70 70 -70z" />
    <glyph glyph-name="acute.cap" horiz-adv-x="500" 
d="M191 765l93 118l59 -28l-107 -90h-45z" />
    <glyph glyph-name="hungarumlaut.cap" horiz-adv-x="500" 
d="M106 765l93 118l59 -28l-107 -90h-45zM246 765l93 118l59 -28l-107 -90h-45z" />
    <glyph glyph-name="grave.cap" horiz-adv-x="500" 
d="M309 765h-45l-107 90l59 28z" />
    <glyph glyph-name="circumflex.cap" horiz-adv-x="500" 
d="M124 765l103 107h46l103 -107h-54l-73 61l-73 -61h-52z" />
    <glyph glyph-name="caron.cap" horiz-adv-x="500" 
d="M376 872l-103 -107h-46l-103 107h54l73 -61l73 61h52z" />
    <glyph glyph-name="breve.cap" horiz-adv-x="500" 
d="M250 763c-74 0 -128 37 -133 100h44c11 -32 40 -52 89 -52s78 20 89 52h44c-5 -63 -59 -100 -133 -100z" />
    <glyph glyph-name="tilde.cap" horiz-adv-x="500" 
d="M315 765c-20 0 -44 10 -70 21c-19 8 -41 17 -56 17c-24 0 -35 -12 -50 -47l-37 10c19 64 44 88 82 88c20 0 44 -10 70 -21c19 -8 41 -17 56 -17c24 0 35 12 50 46l37 -10c-19 -64 -44 -87 -82 -87z" />
    <glyph glyph-name="macron.cap" horiz-adv-x="500" 
d="M95 791v49h310v-49h-310z" />
    <glyph glyph-name="dieresis.cap" horiz-adv-x="500" 
d="M301 765v76h73v-76h-73zM125 765v76h74v-76h-74z" />
    <glyph glyph-name="dotaccent.cap" horiz-adv-x="500" 
d="M212 765v76h76v-76h-76z" />
    <glyph glyph-name="ring.cap" horiz-adv-x="500" 
d="M250 763c-58 0 -106 41 -106 95s48 95 106 95s106 -41 106 -95s-48 -95 -106 -95zM250 795c38 0 68 27 68 63s-30 63 -68 63s-68 -27 -68 -63s30 -63 68 -63z" />
    <glyph glyph-name="commaaccent" unicode="&#x326;" horiz-adv-x="500" 
d="M196 -225l-6 24c41 9 58 25 55 56h-31v71h72v-62c0 -50 -29 -80 -90 -89z" />
    <glyph glyph-name="cedilla" unicode="&#xb8;" horiz-adv-x="500" 
d="M217 -148l-55 26l90 132h43z" />
    <glyph glyph-name="ogonek" unicode="&#x2db;" horiz-adv-x="500" 
d="M321 -128v-36c-83 3 -126 33 -126 79c0 38 26 67 73 103l35 -17c-40 -32 -58 -52 -58 -80s20 -44 76 -49z" />
    </font>
</defs>
</svg>
