<?xml version="1.0" standalone="no"?>
<!DOCTYPE svg PUBLIC "-//W3C//DTD SVG 1.1//EN" "http://www.w3.org/Graphics/SVG/1.1/DTD/svg11.dtd" >
<svg xmlns="http://www.w3.org/2000/svg" xmlns:xlink="http://www.w3.org/1999/xlink" version="1.1">
<metadata>
Created by FontForge 20170910 at Fri Nov  3 19:49:08 2006
 By Jimmy Wärting
HTF Gotham (c) 2001 The Hoefler Type Foundry, Inc. Info: www.typography.com
</metadata>
<defs>
<font id="GothamCondensed-Bold" horiz-adv-x="350" >
  <font-face 
    font-family="Gotham Condensed"
    font-weight="700"
    font-stretch="normal"
    units-per-em="1000"
    panose-1="0 0 0 0 0 0 0 0 0 0"
    ascent="800"
    descent="-200"
    x-height="536"
    cap-height="700"
    bbox="-58 -162 868 913"
    underline-thickness="20"
    underline-position="-133"
    stemh="97"
    stemv="119"
    unicode-range="U+0020-FB04"
  />
<missing-glyph horiz-adv-x="500" 
 />
    <glyph glyph-name=".notdef" horiz-adv-x="500" 
 />
    <glyph glyph-name="space" unicode=" " horiz-adv-x="159" 
 />
    <glyph glyph-name="exclam" unicode="!" horiz-adv-x="222" 
d="M81 218l-42 462v20h144v-20l-42 -462h-60zM42 0v139h138v-139h-138z" />
    <glyph glyph-name="quotedbl" unicode="&#x22;" horiz-adv-x="345" 
d="M210 381v319h120v-9l-76 -310h-44zM45 381v319h120v-9l-76 -310h-44z" />
    <glyph glyph-name="numbersign" unicode="#" horiz-adv-x="377" 
d="M48 0l14 160h-49v108h59l15 168h-56v108h65l14 156h77l-14 -156h64l14 156h77l-14 -156h50v-108h-59l-15 -168h56v-108h-65l-14 -160h-78l14 160h-63l-14 -160h-78zM149 268h64l15 168h-64z" />
    <glyph glyph-name="dollar" unicode="$" 
d="M135 -107v102c-40 2 -69 14 -100 29v127c43 -25 77 -39 110 -39c35 0 65 17 65 60v2c0 32 -10 56 -68 122c-83 94 -117 139 -117 224v2c0 87 44 150 110 173v79h79v-69c38 -2 63 -9 89 -22v-127c-38 22 -61 32 -93 32c-34 0 -63 -22 -63 -60v-2c0 -33 10 -45 68 -112
c96 -111 117 -154 117 -234v-2c0 -84 -51 -147 -118 -171v-114h-79z" />
    <glyph glyph-name="percent" unicode="%" horiz-adv-x="570" 
d="M137 332c-68 0 -112 67 -112 176v22c0 109 44 176 112 176s112 -67 112 -176v-22c0 -109 -44 -176 -112 -176zM87 0l327 700h71l-327 -700h-71zM433 -6c-68 0 -112 67 -112 176v22c0 109 44 176 112 176s112 -67 112 -176v-22c0 -109 -44 -176 -112 -176zM137 413
c19 0 30 22 30 96v20c0 74 -11 96 -30 96s-30 -22 -30 -96v-20c0 -74 11 -96 30 -96zM433 75c19 0 30 22 30 96v20c0 74 -11 96 -30 96s-30 -22 -30 -96v-20c0 -74 11 -96 30 -96z" />
    <glyph glyph-name="ampersand" unicode="&#x26;" horiz-adv-x="434" 
d="M181 -10c-90 0 -168 75 -168 189v6c0 85 40 148 107 206c-38 63 -59 111 -59 159v7c0 84 58 153 145 153c85 0 141 -62 141 -152v-7c0 -79 -37 -136 -99 -188l63 -119c5 22 10 51 15 93l94 -17c-9 -78 -25 -135 -45 -180l58 -99l-88 -54l-33 63c-34 -38 -70 -60 -131 -60
zM200 446c31 29 43 65 43 102v8c0 34 -16 56 -39 56c-24 0 -39 -22 -39 -52v-10c0 -27 12 -59 35 -104zM196 96c27 0 46 12 63 34l-88 174c-26 -33 -41 -75 -41 -110v-8c0 -54 26 -90 66 -90z" />
    <glyph glyph-name="quoteright" unicode="&#x2019;" horiz-adv-x="225" 
d="M35 399l-10 49c74 16 89 69 84 113h-62v139h138v-114c0 -106 -51 -174 -150 -187z" />
    <glyph glyph-name="parenleft" unicode="(" horiz-adv-x="299" 
d="M272 -139c-167 49 -230 222 -230 427c0 203 63 377 230 426v-88c-86 -45 -117 -176 -117 -338c0 -163 31 -294 117 -339v-88z" />
    <glyph glyph-name="parenright" unicode=")" horiz-adv-x="299" 
d="M27 -139v88c86 45 117 176 117 339c0 162 -31 293 -117 338v88c167 -49 230 -223 230 -426c0 -205 -63 -378 -230 -427z" />
    <glyph glyph-name="asterisk" unicode="*" horiz-adv-x="298" 
d="M109 394l18 112l-74 -66l-40 70l91 37l-91 37l40 70l74 -66l-18 112h80l-18 -112l74 66l40 -70l-91 -37l91 -37l-40 -70l-74 66l18 -112h-80z" />
    <glyph glyph-name="plus" unicode="+" horiz-adv-x="436" 
d="M162 138v156h-142v116h142v156h112v-156h142v-116h-142v-156h-112z" />
    <glyph glyph-name="comma" unicode="," horiz-adv-x="218" 
d="M28 -162l-10 49c74 16 89 69 84 113h-62v139h138v-114c0 -106 -51 -174 -150 -187z" />
    <glyph glyph-name="hyphen" unicode="-" horiz-adv-x="336" 
d="M39 250v120h258v-120h-258z" />
    <glyph glyph-name="period" unicode="." horiz-adv-x="218" 
d="M40 0v139h138v-139h-138z" />
    <glyph glyph-name="slash" unicode="/" horiz-adv-x="308" 
d="M-9 -98l219 866h99l-219 -866h-99z" />
    <glyph glyph-name="zero" unicode="0" horiz-adv-x="394" 
d="M197 -10c-113 0 -173 99 -173 341v38c0 242 60 341 173 341c111 0 173 -99 173 -341v-38c0 -242 -62 -341 -173 -341zM197 102c28 0 52 32 52 230v36c0 198 -24 230 -52 230c-29 0 -53 -32 -53 -230v-36c0 -198 24 -230 53 -230z" />
    <glyph glyph-name="one" unicode="1" horiz-adv-x="253" 
d="M86 0v571l-72 -23v123l108 34h87v-705h-123z" />
    <glyph glyph-name="two" unicode="2" horiz-adv-x="320" 
d="M21 0v103l118 270c36 81 48 122 48 153c0 36 -24 61 -62 61c-34 0 -64 -13 -90 -29v118c33 17 71 29 117 29c89 0 154 -54 154 -156v-5c0 -53 -14 -96 -55 -190l-100 -232h152v-122h-282z" />
    <glyph glyph-name="three" unicode="3" horiz-adv-x="328" 
d="M118 -7c-43 0 -75 7 -104 19v116c29 -12 51 -19 88 -19c49 0 87 37 87 99v8c0 73 -48 103 -122 108v80l114 177h-158v119h282v-109l-118 -181c71 -24 122 -74 122 -185v-11c0 -137 -81 -221 -191 -221z" />
    <glyph glyph-name="four" unicode="4" horiz-adv-x="386" 
d="M204 0v129h-190v93l184 480h120v-468h57v-105h-57v-129h-114zM113 234h91v256z" />
    <glyph glyph-name="five" unicode="5" horiz-adv-x="333" 
d="M122 -7c-35 0 -70 9 -93 19v119c23 -12 53 -21 80 -21c57 0 89 47 89 121v7c0 74 -27 100 -67 100c-18 0 -31 -3 -48 -10l-59 39l19 333h249v-116h-159l-9 -140c13 3 27 5 47 5c74 0 147 -54 147 -210v-9c0 -151 -80 -237 -196 -237z" />
    <glyph glyph-name="six" unicode="6" horiz-adv-x="368" 
d="M188 -10c-109 0 -164 94 -164 327v21c0 289 83 367 197 367c37 0 61 -7 84 -16v-115c-19 11 -46 21 -71 21c-56 0 -92 -40 -94 -174c20 17 40 30 79 30c64 0 131 -49 131 -204v-19c0 -144 -68 -238 -162 -238zM189 99c30 0 47 38 47 124v20c0 80 -23 107 -52 107
c-20 0 -32 -8 -43 -18v-84c0 -108 19 -149 48 -149z" />
    <glyph glyph-name="seven" unicode="7" horiz-adv-x="311" 
d="M47 0l123 577h-155v123h272v-86l-121 -614h-119z" />
    <glyph glyph-name="eight" unicode="8" horiz-adv-x="372" 
d="M186 -10c-96 0 -166 76 -166 204v7c0 92 43 148 81 174c-45 29 -71 80 -71 149v6c0 112 71 180 156 180s156 -68 156 -180v-6c0 -69 -26 -120 -71 -149c38 -26 81 -82 81 -174v-7c0 -128 -70 -204 -166 -204zM186 412c27 0 44 32 44 100v6c0 73 -20 96 -44 96
s-44 -23 -44 -96v-6c0 -68 17 -100 44 -100zM186 87c28 0 49 28 49 113v7c0 81 -21 111 -49 111s-49 -30 -49 -111v-7c0 -85 21 -113 49 -113z" />
    <glyph glyph-name="nine" unicode="9" horiz-adv-x="368" 
d="M147 -5c-37 0 -66 8 -94 19v115c25 -13 54 -24 81 -24c56 0 91 40 94 166c-20 -17 -43 -30 -79 -30c-66 0 -131 50 -131 211v14c0 152 68 244 162 244c109 0 164 -94 164 -327v-21c0 -289 -83 -367 -197 -367zM184 342c19 0 32 8 43 18v92c0 108 -19 149 -48 149
c-30 0 -47 -37 -47 -130v-15c0 -86 20 -114 52 -114z" />
    <glyph glyph-name="colon" unicode=":" horiz-adv-x="228" 
d="M45 397v139h138v-139h-138zM45 0v139h138v-139h-138z" />
    <glyph glyph-name="semicolon" unicode=";" horiz-adv-x="228" 
d="M45 397v139h138v-139h-138zM33 -162l-10 49c74 16 89 69 84 113h-62v139h138v-114c0 -106 -51 -174 -150 -187z" />
    <glyph glyph-name="less" unicode="&#x3c;" 
d="M319 81l-290 202v138l290 202v-141l-186 -129l186 -129v-143z" />
    <glyph glyph-name="equal" unicode="=" horiz-adv-x="486" 
d="M50 408v120h386v-120h-386zM50 176v120h386v-120h-386z" />
    <glyph glyph-name="greater" unicode="&#x3e;" 
d="M31 81v141l186 129l-186 129v143l290 -202v-138z" />
    <glyph glyph-name="question" unicode="?" horiz-adv-x="320" 
d="M97 218l-11 175l4 5c57 18 96 57 96 114v2c0 46 -34 79 -81 79c-34 0 -62 -10 -85 -24v110c31 15 61 26 109 26c106 0 177 -76 177 -179v-9c0 -99 -55 -151 -117 -179l-12 -120h-80zM70 0v139h138v-139h-138z" />
    <glyph glyph-name="at" unicode="@" horiz-adv-x="636" 
d="M298 -137c-153 0 -273 116 -271 352c1 253 126 496 334 496c148 0 246 -139 246 -305c0 -169 -57 -338 -168 -338c-63 0 -92 36 -99 81c-26 -47 -57 -77 -98 -77c-47 0 -85 39 -85 120c0 164 67 315 147 315c42 0 63 -32 72 -64l10 56l96 -16l-44 -254
c-4 -22 -7 -41 -7 -67c0 -32 11 -45 31 -45c54 0 101 140 101 294c0 139 -76 258 -207 258c-173 0 -285 -229 -285 -459c-1 -199 94 -306 232 -306c51 0 99 11 146 39l21 -35c-55 -33 -103 -45 -172 -45zM285 153c21 0 41 32 55 91c11 48 16 92 16 122c0 33 -11 45 -28 45
c-21 0 -41 -32 -55 -91c-11 -47 -16 -92 -16 -122c0 -33 11 -45 28 -45z" />
    <glyph glyph-name="A" unicode="A" horiz-adv-x="398" 
d="M1 0l133 702h130l133 -702h-122l-23 139h-111l-22 -139h-118zM159 249h75l-37 231z" />
    <glyph glyph-name="B" unicode="B" horiz-adv-x="394" 
d="M36 0v700h106c118 0 228 -48 228 -178v-5c0 -90 -51 -134 -101 -158c59 -26 110 -67 110 -156v-9c0 -124 -96 -194 -232 -194h-111zM158 406h2c54 0 90 31 90 92v2c0 61 -36 87 -90 87h-2v-181zM158 113h3c56 0 96 33 96 91v5c0 58 -40 91 -96 91h-3v-187z" />
    <glyph glyph-name="C" unicode="C" horiz-adv-x="336" 
d="M221 -5c-112 0 -197 99 -197 343v24c0 246 91 343 205 343c34 0 54 -4 80 -16v-126c-25 15 -45 23 -68 23c-54 0 -93 -48 -93 -223v-26c0 -185 39 -223 95 -223c19 0 43 7 68 22v-120c-28 -16 -55 -21 -90 -21z" />
    <glyph glyph-name="D" unicode="D" horiz-adv-x="419" 
d="M36 0v700h114c156 0 245 -113 245 -338v-24c0 -225 -89 -338 -245 -338h-114zM158 112h5c58 0 108 51 108 226v24c0 175 -50 226 -108 226h-5v-476z" />
    <glyph glyph-name="E" unicode="E" horiz-adv-x="330" 
d="M36 0v700h268v-116h-146v-174h129v-116h-129v-178h149v-116h-271z" />
    <glyph glyph-name="F" unicode="F" horiz-adv-x="310" 
d="M36 0v700h255v-116h-133v-176h116v-116h-116v-292h-122z" />
    <glyph glyph-name="G" unicode="G" horiz-adv-x="405" 
d="M247 -5c-122 0 -223 99 -223 343v24c0 226 96 343 234 343c37 0 68 -8 93 -20v-127c-30 18 -57 30 -89 30c-70 0 -114 -70 -114 -221v-34c0 -183 54 -225 104 -225c4 0 5 0 11 1v179h-60v109h171v-372c-44 -19 -80 -30 -127 -30z" />
    <glyph glyph-name="H" unicode="H" horiz-adv-x="422" 
d="M36 0v700h122v-290h106v290h122v-700h-122v294h-106v-294h-122z" />
    <glyph glyph-name="I" unicode="I" horiz-adv-x="198" 
d="M38 0v700h122v-700h-122z" />
    <glyph glyph-name="J" unicode="J" horiz-adv-x="295" 
d="M93 -6c-31 0 -55 5 -77 10v121c19 -7 38 -12 58 -12c39 0 63 21 63 72v515h124v-524c0 -124 -65 -182 -168 -182z" />
    <glyph glyph-name="K" unicode="K" horiz-adv-x="403" 
d="M36 0v700h122v-293l99 293h138l-118 -296l120 -404h-136l-76 265l-27 -77v-188h-122z" />
    <glyph glyph-name="L" unicode="L" horiz-adv-x="300" 
d="M36 0v700h122v-584h129v-116h-251z" />
    <glyph glyph-name="M" unicode="M" horiz-adv-x="486" 
d="M36 0v700h121l86 -256l86 256h121v-700h-117v423l-89 -265h-2l-89 265v-423h-117z" />
    <glyph glyph-name="N" unicode="N" horiz-adv-x="428" 
d="M36 0v700h114l123 -354v354h119v-700h-108l-129 371v-371h-119z" />
    <glyph glyph-name="O" unicode="O" horiz-adv-x="420" 
d="M210 -10c-111 0 -186 111 -186 342v36c0 231 75 342 186 342s186 -111 186 -342v-36c0 -231 -75 -342 -186 -342zM210 102c37 0 62 50 62 230v36c0 180 -25 230 -62 230s-62 -50 -62 -230v-36c0 -180 25 -230 62 -230z" />
    <glyph glyph-name="P" unicode="P" horiz-adv-x="385" 
d="M36 0v700h109c133 0 226 -72 226 -236v-2c0 -158 -88 -233 -212 -242h-1v-220h-122zM158 333h1c51 3 90 40 90 125v2c0 89 -34 127 -87 127h-4v-254z" />
    <glyph glyph-name="Q" unicode="Q" horiz-adv-x="427" 
d="M360 -16l-48 50c-28 -29 -62 -44 -99 -44c-115 0 -189 111 -189 342v36c0 231 75 342 186 342s186 -111 186 -342v-36c0 -94 -14 -169 -38 -225l63 -58zM219 100c8 0 16 2 22 7l-60 60l57 63l29 -31c3 33 5 76 5 133v36c0 180 -25 230 -62 230s-62 -50 -62 -230v-36
c0 -196 26 -232 71 -232z" />
    <glyph glyph-name="R" unicode="R" horiz-adv-x="398" 
d="M36 0v700h126c125 0 216 -66 216 -223v-9c0 -91 -36 -149 -82 -184l94 -284h-130l-79 244h-2h-21v-244h-122zM158 354h6c53 0 92 31 92 113v8c0 88 -42 111 -95 111h-3v-232z" />
    <glyph glyph-name="S" unicode="S" horiz-adv-x="325" 
d="M145 -5c-48 0 -89 12 -124 29v127c43 -25 77 -39 110 -39c35 0 65 17 65 60v2c0 32 -10 56 -68 122c-83 94 -117 139 -117 224v2c0 112 73 183 170 183c49 0 78 -7 108 -22v-127c-38 22 -61 32 -93 32c-34 0 -63 -22 -63 -60v-2c0 -33 10 -45 68 -112
c96 -111 117 -154 117 -234v-2c0 -110 -77 -183 -173 -183z" />
    <glyph glyph-name="T" unicode="T" horiz-adv-x="324" 
d="M101 0v584h-86v116h294v-116h-86v-584h-122z" />
    <glyph glyph-name="U" unicode="U" horiz-adv-x="416" 
d="M208 -9c-100 0 -174 66 -174 213v496h121v-508c0 -63 22 -88 53 -88s53 25 53 88v508h121v-496c0 -147 -74 -213 -174 -213z" />
    <glyph glyph-name="V" unicode="V" horiz-adv-x="378" 
d="M126 -2l-125 702h124l66 -456l66 456h120l-125 -702h-126z" />
    <glyph glyph-name="W" unicode="W" horiz-adv-x="592" 
d="M109 -2l-106 702h125l51 -429l61 429h113l60 -429l52 429h122l-106 -702h-128l-58 415l-58 -415h-128z" />
    <glyph glyph-name="X" unicode="X" horiz-adv-x="392" 
d="M8 0l114 357l-110 343h130l55 -202l56 202h127l-110 -343l114 -357h-130l-59 213l-60 -213h-127z" />
    <glyph glyph-name="Y" unicode="Y" horiz-adv-x="382" 
d="M130 0v276l-130 424h126l66 -262l67 262h123l-130 -424v-276h-122z" />
    <glyph glyph-name="Z" unicode="Z" horiz-adv-x="340" 
d="M23 0v97l161 488h-155v115h289v-97l-161 -488h161v-115h-295z" />
    <glyph glyph-name="bracketleft" unicode="[" horiz-adv-x="286" 
d="M62 -130v830h196v-84h-93v-662h93v-84h-196z" />
    <glyph glyph-name="backslash" unicode="\" horiz-adv-x="308" 
d="M218 -98l-219 866h99l219 -866h-99z" />
    <glyph glyph-name="bracketright" unicode="]" horiz-adv-x="286" 
d="M28 -130v84h93v662h-93v84h196v-830h-196z" />
    <glyph glyph-name="asciicircum" unicode="^" horiz-adv-x="500" 
d="M128 502l73 191h97l74 -191h-76l-47 129l-47 -129h-74z" />
    <glyph glyph-name="underscore" unicode="_" horiz-adv-x="452" 
d="M-2 -151v92h456v-92h-456z" />
    <glyph glyph-name="quoteleft" unicode="&#x2018;" horiz-adv-x="225" 
d="M40 402v114c0 106 51 174 150 187l10 -49c-74 -16 -89 -69 -84 -113h62v-139h-138z" />
    <glyph glyph-name="a" unicode="a" 
d="M116 -9c-59 0 -102 60 -102 158v17c0 120 48 170 119 170c25 0 48 -7 71 -20v32c0 55 -27 84 -75 84c-30 0 -60 -12 -89 -25v112c36 16 66 23 112 23c109 0 169 -64 169 -186v-356h-118v57c-21 -44 -49 -66 -87 -66zM164 90c20 0 40 17 40 51v92c-9 5 -27 11 -37 11
c-24 0 -40 -20 -40 -71v-14c0 -53 16 -69 37 -69z" />
    <glyph glyph-name="b" unicode="b" horiz-adv-x="384" 
d="M245 -10c-52 0 -76 43 -94 75v-65h-118v705h118v-236c17 32 42 77 94 77c64 0 114 -61 114 -254v-48c0 -191 -50 -254 -114 -254zM197 103c30 0 44 52 44 147v36c0 96 -14 147 -44 147s-47 -51 -47 -147v-36c0 -95 17 -147 47 -147z" />
    <glyph glyph-name="c" unicode="c" horiz-adv-x="286" 
d="M189 -10c-100 0 -166 89 -166 261v32c0 172 72 261 169 261c34 0 50 -3 74 -14v-121c-20 12 -38 20 -59 20c-37 0 -64 -38 -64 -144v-36c0 -104 27 -144 66 -144c17 0 38 10 58 23v-116c-27 -15 -47 -22 -78 -22z" />
    <glyph glyph-name="d" unicode="d" horiz-adv-x="384" 
d="M139 -10c-64 0 -114 61 -114 254v48c0 191 50 254 114 254c52 0 76 -43 94 -75v234h118v-705h-118v67c-17 -32 -42 -77 -94 -77zM187 103c30 0 47 51 47 147v36c0 95 -17 147 -47 147s-44 -52 -44 -147v-36c0 -96 14 -147 44 -147z" />
    <glyph glyph-name="e" unicode="e" 
d="M204 -10c-100 0 -184 91 -184 264v26c0 172 74 264 163 264c93 0 152 -93 152 -269v-62h-197c7 -84 42 -113 81 -113c36 0 59 15 94 39l9 -108c-41 -27 -73 -41 -118 -41zM137 306h87c0 90 -13 133 -41 133c-27 0 -44 -38 -46 -133z" />
    <glyph glyph-name="f" unicode="f" horiz-adv-x="230" 
d="M46 0v440h-33v96h33v39c0 92 51 132 135 132c20 0 32 -1 44 -4v-98c-5 1 -7 1 -14 1c-29 0 -47 -16 -47 -49v-21h61v-96h-61v-440h-118z" />
    <glyph glyph-name="g" unicode="g" horiz-adv-x="384" 
d="M163 -132c-50 0 -78 6 -116 17v109c33 -12 76 -22 100 -22c53 0 86 22 86 84v53c-17 -33 -43 -77 -95 -77c-64 0 -113 64 -113 254v6c0 191 49 254 113 254c52 0 77 -42 95 -75v65h118v-489c0 -130 -74 -179 -188 -179zM187 145c28 0 47 47 47 143v2
c0 95 -19 143 -47 143s-44 -48 -44 -143v-2c0 -96 16 -143 44 -143z" />
    <glyph glyph-name="h" unicode="h" horiz-adv-x="379" 
d="M33 0v705h118v-233c21 41 48 74 95 74c68 0 103 -58 103 -140v-406h-118v379c0 39 -15 61 -39 61s-41 -22 -41 -61v-379h-118z" />
    <glyph glyph-name="i" unicode="i" horiz-adv-x="186" 
d="M33 587v118h120v-118h-120zM34 0v536h118v-536h-118z" />
    <glyph glyph-name="j" unicode="j" horiz-adv-x="188" 
d="M35 587v118h120v-118h-120zM28 -133c-23 0 -31 1 -47 4v93h11c26 0 44 11 44 43v529h118v-539c0 -92 -48 -130 -126 -130z" />
    <glyph glyph-name="k" unicode="k" horiz-adv-x="357" 
d="M33 0v705h118v-374l75 205h128l-92 -217l88 -319h-131l-46 204l-22 -57v-147h-118z" />
    <glyph glyph-name="l" unicode="l" horiz-adv-x="186" 
d="M34 0v705h118v-705h-118z" />
    <glyph glyph-name="m" unicode="m" horiz-adv-x="576" 
d="M33 0v536h118v-63c24 45 51 73 95 73c45 0 71 -27 90 -62c21 29 50 62 96 62c57 0 111 -48 111 -142v-404h-118v378c0 39 -14 62 -38 62s-40 -23 -40 -62v-378h-118v378c0 39 -14 62 -38 62s-40 -23 -40 -62v-378h-118z" />
    <glyph glyph-name="n" unicode="n" horiz-adv-x="379" 
d="M33 0v536h118v-64c21 41 48 74 95 74c68 0 103 -58 103 -140v-406h-118v379c0 39 -15 61 -39 61s-41 -22 -41 -61v-379h-118z" />
    <glyph glyph-name="o" unicode="o" horiz-adv-x="378" 
d="M189 -10c-96 0 -166 89 -166 261v32c0 172 70 261 166 261s166 -89 166 -261v-32c0 -172 -70 -261 -166 -261zM189 95c30 0 48 50 48 154v36c0 106 -18 154 -48 154s-48 -48 -48 -154v-36c0 -104 18 -154 48 -154z" />
    <glyph glyph-name="p" unicode="p" horiz-adv-x="384" 
d="M33 -130v666h118v-67c17 32 42 77 94 77c64 0 114 -61 114 -254v-48c0 -191 -50 -254 -114 -254c-52 0 -76 43 -94 75v-195h-118zM197 103c30 0 44 52 44 147v36c0 96 -14 147 -44 147s-47 -51 -47 -147v-36c0 -95 17 -147 47 -147z" />
    <glyph glyph-name="q" unicode="q" horiz-adv-x="384" 
d="M233 -130v197c-17 -32 -42 -77 -94 -77c-64 0 -114 61 -114 254v48c0 191 50 254 114 254c52 0 76 -43 94 -75v65h118v-666h-118zM187 103c30 0 47 51 47 147v36c0 95 -17 147 -47 147s-44 -52 -44 -147v-36c0 -96 14 -147 44 -147z" />
    <glyph glyph-name="r" unicode="r" horiz-adv-x="250" 
d="M33 0v536h118v-67c16 46 41 76 86 73v-142h-2c-56 0 -84 -38 -84 -114v-286h-118z" />
    <glyph glyph-name="s" unicode="s" horiz-adv-x="284" 
d="M126 -10c-35 0 -75 10 -109 25v116c40 -21 72 -34 101 -34c25 0 43 16 43 40v2c0 23 -9 39 -60 89c-54 53 -90 101 -90 169v2c0 89 61 145 152 145c33 0 58 -4 88 -14v-116c-26 14 -54 23 -81 23s-44 -15 -44 -35v-2c0 -20 9 -34 64 -88c66 -64 86 -107 86 -168v-2
c0 -93 -65 -152 -150 -152z" />
    <glyph glyph-name="t" unicode="t" horiz-adv-x="244" 
d="M157 -7c-56 0 -110 18 -110 99v348h-32v96h32v137h118v-137h63v-96h-63v-308c0 -24 12 -33 33 -33c9 0 19 2 29 6v-94c-18 -10 -46 -18 -70 -18z" />
    <glyph glyph-name="u" unicode="u" horiz-adv-x="379" 
d="M133 -10c-68 0 -103 58 -103 140v406h118v-379c0 -39 15 -61 39 -61s41 22 41 61v379h118v-536h-118v64c-21 -41 -48 -74 -95 -74z" />
    <glyph glyph-name="v" unicode="v" horiz-adv-x="362" 
d="M121 -2l-111 538h117l55 -348l55 348h115l-110 -538h-121z" />
    <glyph glyph-name="w" unicode="w" horiz-adv-x="526" 
d="M102 -2l-91 538h120l40 -300l45 300h96l45 -300l40 300h118l-91 -538h-116l-45 291l-45 -291h-116z" />
    <glyph glyph-name="x" unicode="x" horiz-adv-x="356" 
d="M8 0l97 275l-95 261h122l47 -160l47 160h120l-95 -261l97 -275h-124l-47 170l-47 -170h-122z" />
    <glyph glyph-name="y" unicode="y" horiz-adv-x="362" 
d="M88 -130l34 149l-111 517h117l51 -316l56 316h116l-148 -666h-115z" />
    <glyph glyph-name="z" unicode="z" horiz-adv-x="290" 
d="M12 0v84l141 352h-136v100h262v-84l-141 -352h141v-100h-267z" />
    <glyph glyph-name="braceleft" unicode="{" horiz-adv-x="305" 
d="M281 -141c-126 3 -186 70 -186 163c0 51 27 81 27 139c0 50 -31 78 -79 78h-19v96h19c46 0 79 28 79 78c0 58 -27 88 -27 139c0 93 60 160 186 163v-80c-41 -1 -83 -28 -83 -79c0 -61 31 -90 31 -145c0 -72 -51 -114 -119 -124c68 -10 119 -51 119 -124
c0 -55 -31 -84 -31 -145c0 -51 42 -78 83 -79v-80z" />
    <glyph glyph-name="bar" unicode="|" horiz-adv-x="249" 
d="M78 -98v866h93v-866h-93z" />
    <glyph glyph-name="braceright" unicode="}" horiz-adv-x="311" 
d="M30 -141v80c41 1 83 28 83 79c0 61 -31 90 -31 145c0 72 51 114 119 124c-68 10 -119 51 -119 124c0 55 31 84 31 145c0 51 -42 78 -83 79v80c126 -3 186 -70 186 -163c0 -51 -27 -81 -27 -139c0 -50 31 -78 79 -78h19v-96h-19c-46 0 -79 -28 -79 -78
c0 -58 27 -88 27 -139c0 -93 -60 -160 -186 -163z" />
    <glyph glyph-name="asciitilde" unicode="~" horiz-adv-x="369" 
d="M246 254c-31 0 -50 13 -67 25c-15 10 -28 20 -46 20c-17 0 -24 -15 -33 -49l-63 18c8 80 52 110 86 110c31 0 50 -13 67 -25c15 -10 28 -20 46 -20c17 0 24 15 33 49l63 -18c-8 -80 -52 -110 -86 -110z" />
    <glyph glyph-name="exclamdown" unicode="&#xa1;" horiz-adv-x="222" 
d="M42 561v139h138v-139h-138zM39 0v20l42 462h60l42 -462v-20h-144z" />
    <glyph glyph-name="cent" unicode="&#xa2;" horiz-adv-x="300" 
d="M135 -6v92c-68 28 -110 113 -110 250v32c0 135 44 219 110 249v88h79v-76c21 -2 35 -5 54 -14v-121c-20 12 -38 20 -59 20c-37 0 -64 -38 -64 -144v-36c0 -104 27 -144 66 -144c17 0 38 10 58 23v-116c-20 -11 -36 -18 -55 -20v-83h-79z" />
    <glyph glyph-name="sterling" unicode="&#xa3;" 
d="M22 0v81l49 24v175h-46v111h46v111c0 76 14 125 51 162c27 27 69 44 118 44c35 0 57 -4 76 -9v-120c-14 5 -34 10 -55 10c-20 0 -34 -6 -47 -19c-15 -15 -19 -40 -19 -67v-112h94v-111h-94v-169h140v-111h-313z" />
    <glyph glyph-name="fraction" unicode="&#x2044;" horiz-adv-x="388" 
d="M-36 -97l331 860h109l-331 -860h-109z" />
    <glyph glyph-name="yen" unicode="&#xa5;" horiz-adv-x="402" 
d="M142 0v97h-87v92h87v60h-87v92h65l-110 359h122l70 -285l71 285h119l-110 -359h65v-92h-87v-60h87v-92h-87v-97h-118z" />
    <glyph glyph-name="florin" unicode="&#x192;" horiz-adv-x="333" 
d="M66 -5c-24 0 -41 3 -55 6v106c8 -2 14 -3 26 -3c23 0 40 14 43 51l15 207h-45v96h52l7 97c7 99 61 150 141 150c37 0 57 -4 72 -8v-107c-11 3 -23 6 -39 6c-32 0 -54 -19 -57 -63l-6 -75h81v-96h-88l-16 -222c-8 -106 -57 -145 -131 -145z" />
    <glyph glyph-name="section" unicode="&#xa7;" horiz-adv-x="409" 
d="M191 -7c-35 0 -85 10 -119 25v117c40 -21 82 -34 111 -34c25 0 43 16 43 40v2c0 35 -55 53 -109 84c-51 28 -101 69 -101 135v2c0 46 28 96 82 116c-23 29 -29 57 -29 87v2c0 89 64 138 153 138c35 0 66 -4 96 -14v-115c-26 14 -59 23 -88 23c-33 0 -46 -17 -46 -32v-2
c0 -24 8 -34 108 -92c51 -30 101 -69 101 -135v-2c0 -45 -25 -94 -80 -114c20 -23 28 -49 28 -82v-2c0 -93 -65 -147 -150 -147zM250 272c19 17 28 36 28 54v2c0 22 -8 42 -108 96c-3 2 -7 4 -10 6c-22 -15 -29 -31 -29 -50v-2c0 -22 8 -46 108 -100c4 -2 8 -4 11 -6z" />
    <glyph glyph-name="currency" unicode="&#xa4;" horiz-adv-x="379" 
d="M266 -10c-93 0 -168 71 -190 236h-61v90h54v21v26v25h-54v90h62c24 163 103 232 197 232c34 0 54 -4 80 -16v-126c-25 15 -45 23 -68 23c-40 0 -71 -28 -85 -113h100v-90h-108v-24v-28v-20h108v-90h-102c14 -93 46 -117 89 -117c19 0 43 7 68 22v-120
c-28 -16 -55 -21 -90 -21z" />
    <glyph glyph-name="quotesingle" unicode="'" horiz-adv-x="180" 
d="M45 381v319h120v-9l-76 -310h-44z" />
    <glyph glyph-name="quotedblleft" unicode="&#x201c;" horiz-adv-x="415" 
d="M230 402v114c0 106 51 174 150 187l10 -49c-74 -16 -89 -69 -84 -113h62v-139h-138zM40 402v114c0 106 51 174 150 187l10 -49c-74 -16 -89 -69 -84 -113h62v-139h-138z" />
    <glyph glyph-name="guillemotleft" unicode="&#xab;" horiz-adv-x="474" 
d="M360 40l-134 224v8l134 224l92 -54l-108 -173l111 -173zM157 40l-134 224v8l134 224l92 -54l-108 -173l111 -173z" />
    <glyph glyph-name="guilsinglleft" unicode="&#x2039;" horiz-adv-x="271" 
d="M157 40l-134 224v8l134 224l92 -54l-108 -173l111 -173z" />
    <glyph glyph-name="guilsinglright" unicode="&#x203a;" horiz-adv-x="271" 
d="M114 40l-95 56l111 173l-108 173l92 54l134 -224v-8z" />
    <glyph glyph-name="fi" unicode="&#xfb01;" horiz-adv-x="420" 
d="M267 587v118h120v-118h-120zM46 0v440h-33v96h33v39c0 92 51 132 135 132c20 0 32 -1 44 -4v-98c-5 1 -7 1 -14 1c-29 0 -47 -16 -47 -49v-21h61v-96h-61v-440h-118zM268 0v536h118v-536h-118z" />
    <glyph glyph-name="fl" unicode="&#xfb02;" horiz-adv-x="420" 
d="M46 0v440h-33v96h33v39c0 92 51 132 135 132c20 0 32 -1 44 -4v-98c-5 1 -7 1 -14 1c-29 0 -47 -16 -47 -49v-21h61v-96h-61v-440h-118zM268 0v705h118v-705h-118z" />
    <glyph glyph-name="endash" unicode="&#x2013;" horiz-adv-x="456" 
d="M39 251v118h378v-118h-378z" />
    <glyph glyph-name="dagger" unicode="&#x2020;" horiz-adv-x="238" 
d="M79 238l13 272l-74 -10v79l73 -11l-15 132h86l-15 -132l73 11v-79l-74 10l13 -272h-80z" />
    <glyph glyph-name="daggerdbl" unicode="&#x2021;" horiz-adv-x="256" 
d="M85 0l15 131l-73 -10v79l74 -11l-15 161l15 160l-74 -10v79l73 -11l-15 132h86l-15 -132l73 11v-79l-74 10l14 -160l-14 -161l74 11v-79l-73 10l15 -131h-86z" />
    <glyph glyph-name="periodcentered" unicode="&#xb7;" horiz-adv-x="238" 
d="M50 240v139h138v-139h-138z" />
    <glyph glyph-name="paragraph" unicode="&#xb6;" horiz-adv-x="360" 
d="M197 0v224c-90 10 -183 80 -183 238v2c0 172 104 236 231 236h74v-700h-122z" />
    <glyph glyph-name="bullet" unicode="&#x2022;" horiz-adv-x="351" 
d="M175 203c-64 0 -111 48 -111 142v18c0 94 47 142 111 142s111 -48 111 -142v-18c0 -94 -47 -142 -111 -142z" />
    <glyph glyph-name="quotesinglbase" unicode="&#x201a;" horiz-adv-x="250" 
d="M38 -162l-10 49c83 17 101 69 96 113h-62v139h138v-114c0 -106 -51 -173 -162 -187z" />
    <glyph glyph-name="quotedblbase" unicode="&#x201e;" horiz-adv-x="450" 
d="M238 -162l-10 49c83 17 101 69 96 113h-62v139h138v-114c0 -106 -51 -173 -162 -187zM38 -162l-10 49c83 17 101 69 96 113h-62v139h138v-114c0 -106 -51 -173 -162 -187z" />
    <glyph glyph-name="quotedblright" unicode="&#x201d;" horiz-adv-x="415" 
d="M225 399l-10 49c74 16 89 69 84 113h-62v139h138v-114c0 -106 -51 -174 -150 -187zM35 399l-10 49c74 16 89 69 84 113h-62v139h138v-114c0 -106 -51 -174 -150 -187z" />
    <glyph glyph-name="guillemotright" unicode="&#xbb;" horiz-adv-x="474" 
d="M317 40l-95 56l111 173l-108 173l92 54l134 -224v-8zM114 40l-95 56l111 173l-108 173l92 54l134 -224v-8z" />
    <glyph glyph-name="ellipsis" unicode="&#x2026;" horiz-adv-x="734" 
d="M546 0v139h138v-139h-138zM298 0v139h138v-139h-138zM50 0v139h138v-139h-138z" />
    <glyph glyph-name="perthousand" unicode="&#x2030;" horiz-adv-x="828" 
d="M137 332c-68 0 -112 67 -112 176v22c0 109 44 176 112 176s112 -67 112 -176v-22c0 -109 -44 -176 -112 -176zM87 0l327 700h71l-327 -700h-71zM691 -6c-68 0 -112 67 -112 176v22c0 109 44 176 112 176s112 -67 112 -176v-22c0 -109 -44 -176 -112 -176zM433 -6
c-68 0 -112 67 -112 176v22c0 109 44 176 112 176s112 -67 112 -176v-22c0 -109 -44 -176 -112 -176zM137 413c19 0 30 22 30 96v20c0 74 -11 96 -30 96s-30 -22 -30 -96v-20c0 -74 11 -96 30 -96zM691 75c19 0 30 22 30 96v20c0 74 -11 96 -30 96s-30 -22 -30 -96v-20
c0 -74 11 -96 30 -96zM433 75c19 0 30 22 30 96v20c0 74 -11 96 -30 96s-30 -22 -30 -96v-20c0 -74 11 -96 30 -96z" />
    <glyph glyph-name="questiondown" unicode="&#xbf;" horiz-adv-x="320" 
d="M112 561v139h138v-139h-138zM191 -5c-106 0 -177 76 -177 179v9c0 99 55 151 117 179l12 120h80l11 -175l-4 -5c-57 -18 -96 -57 -96 -114v-2c0 -46 34 -79 81 -79c34 0 62 10 85 24v-110c-31 -15 -61 -26 -109 -26z" />
    <glyph glyph-name="grave" unicode="`" horiz-adv-x="500" 
d="M262 590l-115 125l89 47l96 -172h-70z" />
    <glyph glyph-name="acute" unicode="&#xb4;" horiz-adv-x="500" 
d="M156 590l96 172l89 -47l-115 -125h-70z" />
    <glyph glyph-name="circumflex" unicode="&#x2c6;" horiz-adv-x="500" 
d="M128 590l73 157h97l74 -157h-72l-51 106l-51 -106h-70z" />
    <glyph glyph-name="tilde" unicode="&#x2dc;" horiz-adv-x="500" 
d="M311 582c-31 0 -50 13 -67 25c-15 10 -28 20 -46 20c-17 0 -24 -15 -33 -49l-63 18c8 80 52 110 86 110c31 0 50 -13 67 -25c15 -10 28 -20 46 -20c17 0 24 15 33 49l63 -18c-8 -80 -52 -110 -86 -110z" />
    <glyph glyph-name="macron" unicode="&#xaf;" horiz-adv-x="500" 
d="M118 605v85h264v-85h-264z" />
    <glyph glyph-name="breve" unicode="&#x2d8;" horiz-adv-x="500" 
d="M250 578c-64 0 -122 46 -128 142h79c3 -34 19 -65 49 -65s46 31 49 65h79c-6 -96 -64 -142 -128 -142z" />
    <glyph glyph-name="dotaccent" unicode="&#x2d9;" horiz-adv-x="500" 
d="M186 570v122h128v-122h-128z" />
    <glyph glyph-name="dieresis" unicode="&#xa8;" horiz-adv-x="500" 
d="M280 596v105h106v-105h-106zM114 596v105h106v-105h-106z" />
    <glyph glyph-name="ring" unicode="&#x2da;" horiz-adv-x="500" 
d="M251 574c-62 0 -108 51 -108 112v11c0 62 46 112 108 112c60 0 106 -50 106 -112v-11c0 -61 -46 -112 -106 -112zM251 634c27 0 43 27 43 54v7c0 29 -16 55 -43 55c-28 0 -46 -26 -46 -55v-7c0 -27 19 -54 46 -54z" />
    <glyph glyph-name="cedilla" unicode="&#xb8;" horiz-adv-x="500" 
d="M231 -142l-100 38l98 124h70z" />
    <glyph glyph-name="hungarumlaut" unicode="&#x2dd;" horiz-adv-x="500" 
d="M237 590l96 172l89 -47l-115 -125h-70zM78 590l96 172l89 -47l-115 -125h-70z" />
    <glyph glyph-name="ogonek" unicode="&#x2db;" horiz-adv-x="500" 
d="M364 -154c-125 2 -180 40 -180 107c0 27 6 49 16 67h74c-4 -14 -6 -27 -6 -49c0 -31 19 -62 96 -68v-57z" />
    <glyph glyph-name="caron" unicode="&#x2c7;" horiz-adv-x="500" 
d="M201 590l-73 157h70l51 -106l51 106h72l-74 -157h-97z" />
    <glyph glyph-name="emdash" unicode="&#x2014;" horiz-adv-x="674" 
d="M39 251v118h596v-118h-596z" />
    <glyph glyph-name="AE" unicode="&#xc6;" horiz-adv-x="556" 
d="M0 0l184 700h346v-116h-146v-174h129v-116h-129v-178h149v-116h-271v139h-111l-33 -139h-118zM177 249h85v325h-9z" />
    <glyph glyph-name="ordfeminine" unicode="&#xaa;" horiz-adv-x="250" 
d="M93 402c-32 0 -56 33 -56 87v9c0 66 26 93 65 93c14 0 27 -4 40 -11v17c0 30 -15 46 -42 46c-16 0 -33 -7 -49 -14v62c20 9 37 13 62 13c60 0 93 -36 93 -103v-194h-65v32c-12 -24 -27 -37 -48 -37zM32 302v48h186v-48h-186zM120 457c11 0 22 9 22 28v50
c-5 2 -15 6 -21 6c-13 0 -22 -11 -22 -39v-7c0 -29 9 -38 21 -38z" />
    <glyph glyph-name="Lslash" unicode="&#x141;" horiz-adv-x="327" 
d="M66 0v280l-44 -14v114l44 14v306h119v-267l97 31v-114l-97 -31v-203h129v-116h-248z" />
    <glyph glyph-name="Oslash" unicode="&#xd8;" horiz-adv-x="420" 
d="M35 -5l36 87c-30 57 -47 140 -47 250v36c0 231 75 342 186 342c39 0 73 -13 101 -41l15 36h69l-41 -98c27 -56 42 -136 42 -239v-36c0 -231 -75 -342 -186 -342c-35 0 -67 11 -94 34l-12 -29h-69zM147 265l113 271c-11 47 -28 64 -50 64c-38 0 -64 -52 -64 -232v-36
c0 -25 0 -47 1 -67zM210 100c38 0 64 52 64 232v36c0 16 0 31 -1 45l-110 -264c11 -36 28 -49 47 -49z" />
    <glyph glyph-name="OE" unicode="&#x152;" horiz-adv-x="556" 
d="M269 0c-156 0 -245 113 -245 338v24c0 225 89 338 245 338h261v-116h-146v-174h129v-116h-129v-178h149v-116h-264zM256 112h5v476h-5c-58 0 -108 -51 -108 -226v-24c0 -175 50 -226 108 -226z" />
    <glyph glyph-name="ordmasculine" unicode="&#xba;" horiz-adv-x="250" 
d="M125 401c-53 0 -91 49 -91 143v18c0 94 38 143 91 143s91 -49 91 -143v-18c0 -94 -38 -143 -91 -143zM35 302v48h180v-48h-180zM125 458c17 0 26 28 26 85v20c0 58 -9 85 -26 85s-26 -27 -26 -85v-20c0 -57 9 -85 26 -85z" />
    <glyph glyph-name="ae" unicode="&#xe6;" horiz-adv-x="531" 
d="M131 -9c-74 0 -117 60 -117 158v17c0 120 48 170 119 170c25 0 48 -7 71 -20v32c0 55 -27 84 -75 84c-30 0 -60 -12 -89 -25v112c36 16 66 23 112 23c52 0 90 -19 116 -58c25 41 57 60 96 60c93 0 152 -93 152 -269v-62h-197c7 -84 42 -113 81 -113c36 0 59 15 94 39
l9 -108c-41 -27 -73 -41 -118 -41c-61 0 -111 34 -140 100c-18 -57 -60 -99 -114 -99zM318 306h87c0 90 -13 133 -41 133c-27 0 -44 -38 -46 -133zM169 90c19 0 44 22 56 69c-4 21 -6 45 -8 70c-15 9 -32 15 -50 15c-24 0 -40 -20 -40 -71v-14c0 -51 16 -69 42 -69z" />
    <glyph glyph-name="dotlessi" unicode="&#x131;" horiz-adv-x="186" 
d="M34 0v536h118v-536h-118z" />
    <glyph glyph-name="lslash" unicode="&#x142;" horiz-adv-x="262" 
d="M72 0v275l-62 -30v114l62 30v316h118v-258l62 30v-114l-62 -30v-333h-118z" />
    <glyph glyph-name="oslash" unicode="&#xf8;" horiz-adv-x="378" 
d="M11 -8l45 87c-21 42 -33 100 -33 172v32c0 172 70 261 166 261c33 0 63 -11 88 -32l18 34h69l-45 -86c23 -43 36 -102 36 -177v-32c0 -172 -70 -261 -166 -261c-35 0 -66 12 -92 35l-17 -33h-69zM134 228l93 178c-9 23 -22 35 -38 35c-33 0 -55 -50 -55 -156v-36v-21z
M189 93c33 0 55 52 55 156v36c0 10 0 20 -1 29l-95 -181c10 -27 24 -40 41 -40z" />
    <glyph glyph-name="oe" unicode="&#x153;" horiz-adv-x="577" 
d="M189 -10c-96 0 -166 89 -166 261v32c0 172 70 261 166 261c47 0 86 -22 113 -70c27 48 64 70 108 70c93 0 152 -93 152 -269v-62h-197c7 -84 42 -113 81 -113c36 0 59 15 94 39l9 -108c-41 -27 -73 -41 -118 -41c-51 0 -95 24 -126 74c-27 -51 -67 -74 -116 -74zM364 306
h87c0 90 -13 133 -41 133c-27 0 -44 -38 -46 -133zM189 95c30 0 48 50 48 154v36c0 106 -18 154 -48 154s-48 -48 -48 -154v-36c0 -104 18 -154 48 -154z" />
    <glyph glyph-name="germandbls" unicode="&#xdf;" horiz-adv-x="402" 
d="M199 -2v101c45 6 66 43 66 106v3c0 57 -19 97 -66 110v86c37 25 52 66 52 116v6c0 50 -17 78 -49 78c-33 0 -51 -35 -51 -102v-502h-118v498c0 124 60 209 172 209c104 0 159 -77 159 -165v-8c0 -80 -31 -128 -77 -160c59 -29 95 -81 95 -166v-7
c0 -123 -61 -199 -183 -203z" />
    <glyph glyph-name="Eth" unicode="&#xd0;" horiz-adv-x="446" 
d="M66 0v290h-51v120h51v290h111c156 0 245 -113 245 -338v-24c0 -225 -89 -338 -245 -338h-111zM185 112h5c58 0 108 51 108 226v24c0 175 -50 226 -108 226h-5v-178h57v-120h-57v-178z" />
    <glyph glyph-name="eth" unicode="&#xf0;" horiz-adv-x="374" 
d="M181 -10c-91 0 -157 74 -157 230v17c0 156 51 222 112 222c28 0 57 -12 87 -50l-49 118l-73 -42l-44 76l84 48l-40 96h109l19 -46l58 33l44 -76l-67 -38l29 -68c35 -83 57 -167 57 -268v-17c0 -162 -78 -235 -169 -235zM186 94c26 0 44 26 44 127v14
c0 103 -18 127 -44 127c-24 0 -43 -24 -43 -127v-14c0 -101 19 -127 43 -127z" />
    <glyph glyph-name="Scaron" unicode="&#x160;" horiz-adv-x="325" 
d="M145 -5c-48 0 -89 12 -124 29v127c43 -25 77 -39 110 -39c35 0 65 17 65 60v2c0 32 -10 56 -68 122c-83 94 -117 139 -117 224v2c0 112 73 183 170 183c49 0 78 -7 108 -22v-127c-38 22 -61 32 -93 32c-34 0 -63 -22 -63 -60v-2c0 -33 10 -45 68 -112
c96 -111 117 -154 117 -234v-2c0 -110 -77 -183 -173 -183zM117 741l-73 157h70l51 -106l51 106h72l-74 -157h-97z" />
    <glyph glyph-name="scaron" unicode="&#x161;" horiz-adv-x="284" 
d="M126 -10c-35 0 -75 10 -109 25v116c40 -21 72 -34 101 -34c25 0 43 16 43 40v2c0 23 -9 39 -60 89c-54 53 -90 101 -90 169v2c0 89 61 145 152 145c33 0 58 -4 88 -14v-116c-26 14 -54 23 -81 23s-44 -15 -44 -35v-2c0 -20 9 -34 64 -88c66 -64 86 -107 86 -168v-2
c0 -93 -65 -152 -150 -152zM92 590l-73 157h70l51 -106l51 106h72l-74 -157h-97z" />
    <glyph glyph-name="Yacute" unicode="&#xdd;" horiz-adv-x="382" 
d="M130 0v276l-130 424h126l66 -262l67 262h123l-130 -424v-276h-122zM141 741l96 172l89 -47l-115 -125h-70z" />
    <glyph glyph-name="yacute" unicode="&#xfd;" horiz-adv-x="362" 
d="M88 -130l34 149l-111 517h117l51 -316l56 316h116l-148 -666h-115zM122 590l96 172l89 -47l-115 -125h-70z" />
    <glyph glyph-name="Thorn" unicode="&#xde;" horiz-adv-x="385" 
d="M36 0v700h122v-96h1c101 0 212 -62 212 -236v-2c0 -158 -88 -233 -212 -242h-1v-124h-122zM158 237h1c51 3 90 40 90 125v2c0 89 -34 127 -87 127h-4v-254z" />
    <glyph glyph-name="thorn" unicode="&#xfe;" horiz-adv-x="384" 
d="M33 -130v835h118v-236c17 32 42 77 94 77c64 0 114 -61 114 -254v-48c0 -191 -50 -254 -114 -254c-52 0 -76 43 -94 75v-195h-118zM197 103c30 0 44 52 44 147v36c0 96 -14 147 -44 147s-47 -51 -47 -147v-36c0 -95 17 -147 47 -147z" />
    <glyph glyph-name="Zcaron" unicode="&#x17d;" horiz-adv-x="340" 
d="M23 0v97l161 488h-155v115h289v-97l-161 -488h161v-115h-295zM126 741l-73 157h70l51 -106l51 106h72l-74 -157h-97z" />
    <glyph glyph-name="zcaron" unicode="&#x17e;" horiz-adv-x="290" 
d="M12 0v84l141 352h-136v100h262v-84l-141 -352h141v-100h-267zM102 590l-73 157h70l51 -106l51 106h72l-74 -157h-97z" />
    <glyph glyph-name="Adieresis" unicode="&#xc4;" horiz-adv-x="398" 
d="M1 0l133 702h130l133 -702h-122l-23 139h-111l-22 -139h-118zM159 249h75l-37 231zM228 747v105h106v-105h-106zM62 747v105h106v-105h-106z" />
    <glyph glyph-name="Aring" unicode="&#xc5;" horiz-adv-x="398" 
d="M1 0l128 674c-23 21 -37 51 -37 85v11c0 62 46 112 108 112c60 0 106 -50 106 -112v-11c0 -34 -14 -64 -37 -85l128 -674h-122l-23 139h-111l-22 -139h-118zM200 707c27 0 43 27 43 54v7c0 29 -16 55 -43 55c-28 0 -46 -26 -46 -55v-7c0 -27 19 -54 46 -54zM159 249h75
l-37 231z" />
    <glyph glyph-name="Ccedilla" unicode="&#xc7;" horiz-adv-x="336" 
d="M185 -142l-100 38l84 107c-85 27 -145 130 -145 335v24c0 246 91 343 205 343c34 0 54 -4 80 -16v-126c-25 15 -45 23 -68 23c-54 0 -93 -48 -93 -223v-26c0 -185 39 -223 95 -223c19 0 43 7 68 22v-120c-22 -13 -43 -18 -68 -20z" />
    <glyph glyph-name="Eacute" unicode="&#xc9;" horiz-adv-x="330" 
d="M36 0v700h268v-116h-146v-174h129v-116h-129v-178h149v-116h-271zM111 741l96 172l89 -47l-115 -125h-70z" />
    <glyph glyph-name="Ntilde" unicode="&#xd1;" horiz-adv-x="428" 
d="M36 0v700h114l123 -354v354h119v-700h-108l-129 371v-371h-119zM284 733c-31 0 -50 13 -67 25c-15 10 -28 20 -46 20c-17 0 -24 -15 -33 -49l-63 18c8 80 52 110 86 110c31 0 50 -13 67 -25c15 -10 28 -20 46 -20c17 0 24 15 33 49l63 -18c-8 -80 -52 -110 -86 -110z" />
    <glyph glyph-name="Odieresis" unicode="&#xd6;" horiz-adv-x="420" 
d="M210 -10c-111 0 -186 111 -186 342v36c0 231 75 342 186 342s186 -111 186 -342v-36c0 -231 -75 -342 -186 -342zM210 102c37 0 62 50 62 230v36c0 180 -25 230 -62 230s-62 -50 -62 -230v-36c0 -180 25 -230 62 -230zM240 747v105h106v-105h-106zM74 747v105h106v-105
h-106z" />
    <glyph glyph-name="Udieresis" unicode="&#xdc;" horiz-adv-x="416" 
d="M208 -9c-100 0 -174 66 -174 213v496h121v-508c0 -63 22 -88 53 -88s53 25 53 88v508h121v-496c0 -147 -74 -213 -174 -213zM238 747v105h106v-105h-106zM72 747v105h106v-105h-106z" />
    <glyph glyph-name="aacute" unicode="&#xe1;" 
d="M116 -9c-59 0 -102 60 -102 158v17c0 120 48 170 119 170c25 0 48 -7 71 -20v32c0 55 -27 84 -75 84c-30 0 -60 -12 -89 -25v112c36 16 66 23 112 23c109 0 169 -64 169 -186v-356h-118v57c-21 -44 -49 -66 -87 -66zM164 90c20 0 40 17 40 51v92c-9 5 -27 11 -37 11
c-24 0 -40 -20 -40 -71v-14c0 -53 16 -69 37 -69zM106 590l96 172l89 -47l-115 -125h-70z" />
    <glyph glyph-name="agrave" unicode="&#xe0;" 
d="M116 -9c-59 0 -102 60 -102 158v17c0 120 48 170 119 170c25 0 48 -7 71 -20v32c0 55 -27 84 -75 84c-30 0 -60 -12 -89 -25v112c36 16 66 23 112 23c109 0 169 -64 169 -186v-356h-118v57c-21 -44 -49 -66 -87 -66zM164 90c20 0 40 17 40 51v92c-9 5 -27 11 -37 11
c-24 0 -40 -20 -40 -71v-14c0 -53 16 -69 37 -69zM135 590l-115 125l89 47l96 -172h-70z" />
    <glyph glyph-name="acircumflex" unicode="&#xe2;" 
d="M116 -9c-59 0 -102 60 -102 158v17c0 120 48 170 119 170c25 0 48 -7 71 -20v32c0 55 -27 84 -75 84c-30 0 -60 -12 -89 -25v112c36 16 66 23 112 23c109 0 169 -64 169 -186v-356h-118v57c-21 -44 -49 -66 -87 -66zM164 90c20 0 40 17 40 51v92c-9 5 -27 11 -37 11
c-24 0 -40 -20 -40 -71v-14c0 -53 16 -69 37 -69zM47 590l73 157h97l74 -157h-72l-51 106l-51 -106h-70z" />
    <glyph glyph-name="adieresis" unicode="&#xe4;" 
d="M116 -9c-59 0 -102 60 -102 158v17c0 120 48 170 119 170c25 0 48 -7 71 -20v32c0 55 -27 84 -75 84c-30 0 -60 -12 -89 -25v112c36 16 66 23 112 23c109 0 169 -64 169 -186v-356h-118v57c-21 -44 -49 -66 -87 -66zM164 90c20 0 40 17 40 51v92c-9 5 -27 11 -37 11
c-24 0 -40 -20 -40 -71v-14c0 -53 16 -69 37 -69zM197 596v105h106v-105h-106zM31 596v105h106v-105h-106z" />
    <glyph glyph-name="atilde" unicode="&#xe3;" 
d="M116 -9c-59 0 -102 60 -102 158v17c0 120 48 170 119 170c25 0 48 -7 71 -20v32c0 55 -27 84 -75 84c-30 0 -60 -12 -89 -25v112c36 16 66 23 112 23c109 0 169 -64 169 -186v-356h-118v57c-21 -44 -49 -66 -87 -66zM164 90c20 0 40 17 40 51v92c-9 5 -27 11 -37 11
c-24 0 -40 -20 -40 -71v-14c0 -53 16 -69 37 -69zM233 582c-31 0 -50 13 -67 25c-15 10 -28 20 -46 20c-17 0 -24 -15 -33 -49l-63 18c8 80 52 110 86 110c31 0 50 -13 67 -25c15 -10 28 -20 46 -20c17 0 24 15 33 49l63 -18c-8 -80 -52 -110 -86 -110z" />
    <glyph glyph-name="aring" unicode="&#xe5;" 
d="M116 -9c-59 0 -102 60 -102 158v17c0 120 48 170 119 170c25 0 48 -7 71 -20v32c0 55 -27 84 -75 84c-30 0 -60 -12 -89 -25v112c36 16 66 23 112 23c109 0 169 -64 169 -186v-356h-118v57c-21 -44 -49 -66 -87 -66zM164 90c20 0 40 17 40 51v92c-9 5 -27 11 -37 11
c-24 0 -40 -20 -40 -71v-14c0 -53 16 -69 37 -69zM162 574c-62 0 -108 51 -108 112v11c0 62 46 112 108 112c60 0 106 -50 106 -112v-11c0 -61 -46 -112 -106 -112zM162 634c27 0 43 27 43 54v7c0 29 -16 55 -43 55c-28 0 -46 -26 -46 -55v-7c0 -27 19 -54 46 -54z" />
    <glyph glyph-name="ccedilla" unicode="&#xe7;" horiz-adv-x="286" 
d="M158 -142l-100 38l81 103c-70 27 -114 112 -114 252v32c0 172 72 261 169 261c34 0 50 -3 74 -14v-121c-20 12 -38 20 -59 20c-37 0 -64 -38 -64 -144v-36c0 -104 27 -144 66 -144c17 0 38 10 58 23v-116c-20 -11 -36 -18 -55 -20z" />
    <glyph glyph-name="eacute" unicode="&#xe9;" 
d="M204 -10c-100 0 -184 91 -184 264v26c0 172 74 264 163 264c93 0 152 -93 152 -269v-62h-197c7 -84 42 -113 81 -113c36 0 59 15 94 39l9 -108c-41 -27 -73 -41 -118 -41zM137 306h87c0 90 -13 133 -41 133c-27 0 -44 -38 -46 -133zM133 590l96 172l89 -47l-115 -125h-70
z" />
    <glyph glyph-name="egrave" unicode="&#xe8;" 
d="M204 -10c-100 0 -184 91 -184 264v26c0 172 74 264 163 264c93 0 152 -93 152 -269v-62h-197c7 -84 42 -113 81 -113c36 0 59 15 94 39l9 -108c-41 -27 -73 -41 -118 -41zM137 306h87c0 90 -13 133 -41 133c-27 0 -44 -38 -46 -133zM149 590l-115 125l89 47l96 -172h-70z
" />
    <glyph glyph-name="ecircumflex" unicode="&#xea;" 
d="M204 -10c-100 0 -184 91 -184 264v26c0 172 74 264 163 264c93 0 152 -93 152 -269v-62h-197c7 -84 42 -113 81 -113c36 0 59 15 94 39l9 -108c-41 -27 -73 -41 -118 -41zM137 306h87c0 90 -13 133 -41 133c-27 0 -44 -38 -46 -133zM60 590l73 157h97l74 -157h-72
l-51 106l-51 -106h-70z" />
    <glyph glyph-name="edieresis" unicode="&#xeb;" 
d="M204 -10c-100 0 -184 91 -184 264v26c0 172 74 264 163 264c93 0 152 -93 152 -269v-62h-197c7 -84 42 -113 81 -113c36 0 59 15 94 39l9 -108c-41 -27 -73 -41 -118 -41zM137 306h87c0 90 -13 133 -41 133c-27 0 -44 -38 -46 -133zM212 596v105h106v-105h-106zM46 596
v105h106v-105h-106z" />
    <glyph glyph-name="iacute" unicode="&#xed;" horiz-adv-x="186" 
d="M34 0v536h118v-536h-118zM50 590l96 172l89 -47l-115 -125h-70z" />
    <glyph glyph-name="igrave" unicode="&#xec;" horiz-adv-x="186" 
d="M34 0v536h118v-536h-118zM57 590l-115 125l89 47l96 -172h-70z" />
    <glyph glyph-name="icircumflex" unicode="&#xee;" horiz-adv-x="186" 
d="M34 0v536h118v-536h-118zM-29 590l73 157h97l74 -157h-72l-51 106l-51 -106h-70z" />
    <glyph glyph-name="idieresis" unicode="&#xef;" horiz-adv-x="186" 
d="M34 0v536h118v-536h-118zM123 596v105h106v-105h-106zM-43 596v105h106v-105h-106z" />
    <glyph glyph-name="ntilde" unicode="&#xf1;" horiz-adv-x="379" 
d="M33 0v536h118v-64c21 41 48 74 95 74c68 0 103 -58 103 -140v-406h-118v379c0 39 -15 61 -39 61s-41 -22 -41 -61v-379h-118zM256 582c-31 0 -50 13 -67 25c-15 10 -28 20 -46 20c-17 0 -24 -15 -33 -49l-63 18c8 80 52 110 86 110c31 0 50 -13 67 -25
c15 -10 28 -20 46 -20c17 0 24 15 33 49l63 -18c-8 -80 -52 -110 -86 -110z" />
    <glyph glyph-name="oacute" unicode="&#xf3;" horiz-adv-x="378" 
d="M189 -10c-96 0 -166 89 -166 261v32c0 172 70 261 166 261s166 -89 166 -261v-32c0 -172 -70 -261 -166 -261zM189 95c30 0 48 50 48 154v36c0 106 -18 154 -48 154s-48 -48 -48 -154v-36c0 -104 18 -154 48 -154zM145 590l96 172l89 -47l-115 -125h-70z" />
    <glyph glyph-name="ograve" unicode="&#xf2;" horiz-adv-x="378" 
d="M189 -10c-96 0 -166 89 -166 261v32c0 172 70 261 166 261s166 -89 166 -261v-32c0 -172 -70 -261 -166 -261zM189 95c30 0 48 50 48 154v36c0 106 -18 154 -48 154s-48 -48 -48 -154v-36c0 -104 18 -154 48 -154zM161 590l-115 125l89 47l96 -172h-70z" />
    <glyph glyph-name="ocircumflex" unicode="&#xf4;" horiz-adv-x="378" 
d="M189 -10c-96 0 -166 89 -166 261v32c0 172 70 261 166 261s166 -89 166 -261v-32c0 -172 -70 -261 -166 -261zM189 95c30 0 48 50 48 154v36c0 106 -18 154 -48 154s-48 -48 -48 -154v-36c0 -104 18 -154 48 -154zM67 590l73 157h97l74 -157h-72l-51 106l-51 -106h-70z
" />
    <glyph glyph-name="odieresis" unicode="&#xf6;" horiz-adv-x="378" 
d="M189 -10c-96 0 -166 89 -166 261v32c0 172 70 261 166 261s166 -89 166 -261v-32c0 -172 -70 -261 -166 -261zM189 95c30 0 48 50 48 154v36c0 106 -18 154 -48 154s-48 -48 -48 -154v-36c0 -104 18 -154 48 -154zM219 596v105h106v-105h-106zM53 596v105h106v-105h-106z
" />
    <glyph glyph-name="otilde" unicode="&#xf5;" horiz-adv-x="378" 
d="M189 -10c-96 0 -166 89 -166 261v32c0 172 70 261 166 261s166 -89 166 -261v-32c0 -172 -70 -261 -166 -261zM189 95c30 0 48 50 48 154v36c0 106 -18 154 -48 154s-48 -48 -48 -154v-36c0 -104 18 -154 48 -154zM250 582c-31 0 -50 13 -67 25c-15 10 -28 20 -46 20
c-17 0 -24 -15 -33 -49l-63 18c8 80 52 110 86 110c31 0 50 -13 67 -25c15 -10 28 -20 46 -20c17 0 24 15 33 49l63 -18c-8 -80 -52 -110 -86 -110z" />
    <glyph glyph-name="uacute" unicode="&#xfa;" horiz-adv-x="379" 
d="M133 -10c-68 0 -103 58 -103 140v406h118v-379c0 -39 15 -61 39 -61s41 22 41 61v379h118v-536h-118v64c-21 -41 -48 -74 -95 -74zM151 590l96 172l89 -47l-115 -125h-70z" />
    <glyph glyph-name="ugrave" unicode="&#xf9;" horiz-adv-x="379" 
d="M133 -10c-68 0 -103 58 -103 140v406h118v-379c0 -39 15 -61 39 -61s41 22 41 61v379h118v-536h-118v64c-21 -41 -48 -74 -95 -74zM152 590l-115 125l89 47l96 -172h-70z" />
    <glyph glyph-name="ucircumflex" unicode="&#xfb;" horiz-adv-x="379" 
d="M133 -10c-68 0 -103 58 -103 140v406h118v-379c0 -39 15 -61 39 -61s41 22 41 61v379h118v-536h-118v64c-21 -41 -48 -74 -95 -74zM67 590l73 157h97l74 -157h-72l-51 106l-51 -106h-70z" />
    <glyph glyph-name="udieresis" unicode="&#xfc;" horiz-adv-x="379" 
d="M133 -10c-68 0 -103 58 -103 140v406h118v-379c0 -39 15 -61 39 -61s41 22 41 61v379h118v-536h-118v64c-21 -41 -48 -74 -95 -74zM219 596v105h106v-105h-106zM53 596v105h106v-105h-106z" />
    <glyph glyph-name="degree" unicode="&#xb0;" horiz-adv-x="274" 
d="M137 362c-68 0 -112 67 -112 166v12c0 99 44 166 112 166s112 -67 112 -166v-12c0 -99 -44 -166 -112 -166zM137 438c20 0 35 22 35 90v12c0 68 -15 90 -35 90s-35 -22 -35 -90v-12c0 -68 15 -90 35 -90z" />
    <glyph glyph-name="registered" unicode="&#xae;" horiz-adv-x="522" 
d="M261 -10c-140 0 -237 132 -237 343v34c0 211 97 343 237 343s237 -132 237 -343v-34c0 -211 -97 -343 -237 -343zM261 26c124 0 199 121 199 306v36c0 185 -75 306 -199 306s-199 -121 -199 -306v-36c0 -185 75 -306 199 -306zM171 164v385h70c68 0 118 -36 118 -123v-5
c0 -50 -19 -82 -45 -101l52 -156h-71l-44 134h-4h-9v-134h-67zM238 359h4c29 0 50 17 50 62v4c0 49 -23 61 -52 61h-2v-127z" />
    <glyph glyph-name="copyright" unicode="&#xa9;" horiz-adv-x="522" 
d="M261 -10c-140 0 -237 132 -237 343v34c0 211 97 343 237 343s237 -132 237 -343v-34c0 -211 -97 -343 -237 -343zM261 26c124 0 199 121 199 306v36c0 185 -75 306 -199 306s-199 -121 -199 -306v-36c0 -185 75 -306 199 -306zM272 151c-62 0 -109 57 -109 191v18
c0 135 50 191 113 191c19 0 30 -2 44 -9v-72c-14 8 -25 13 -37 13c-30 0 -50 -26 -50 -122v-20c0 -101 20 -122 51 -122c10 0 23 4 37 13v-69c-15 -9 -30 -12 -49 -12z" />
    <glyph glyph-name="trademark" unicode="&#x2122;" horiz-adv-x="431" 
d="M188 385v315h67l36 -105l36 105h67v-315h-62v191l-41 -120h-1l-39 120v-191h-63zM54 385v253h-39v62h142v-62h-39v-253h-64z" />
    <glyph glyph-name="plusminus" unicode="&#xb1;" horiz-adv-x="328" 
d="M127 -7c-50 0 -83 7 -113 19v116c28 -12 55 -19 90 -19c47 0 87 36 87 98v3c0 63 -42 100 -122 102v101c72 6 120 48 120 105v2c0 45 -30 71 -74 71c-33 0 -60 -11 -91 -27v113c34 17 67 29 118 29c89 0 165 -55 165 -172c0 5 0 1 0 -4c0 -84 -48 -135 -99 -159
c58 -24 103 -72 103 -166v-5c0 -132 -84 -207 -184 -207z" />
    <glyph glyph-name="mu" unicode="&#xb5;" horiz-adv-x="420" 
d="M295 -81l-48 76c-11 -3 -24 -5 -37 -5c-111 0 -186 111 -186 342v36c0 231 75 342 186 342s186 -111 186 -342v-36c0 -123 -21 -212 -58 -269l85 -144h-128zM210 102c37 0 62 50 62 230v36c0 180 -25 230 -62 230s-62 -50 -62 -230v-36c0 -180 25 -230 62 -230z" />
    <glyph glyph-name="pi" unicode="&#x3c0;" horiz-adv-x="522" 
d="M261 -10c-140 0 -237 132 -237 343v34c0 211 97 343 237 343s237 -132 237 -343v-34c0 -211 -97 -343 -237 -343zM261 26c124 0 199 121 199 306v36c0 185 -75 306 -199 306s-199 -121 -199 -306v-36c0 -185 75 -306 199 -306zM187 164v385h60c73 0 124 -39 124 -129v-2
c0 -87 -48 -128 -116 -133h-1v-121h-67zM254 347h1c28 2 49 22 49 69v1c0 49 -18 70 -48 70h-2v-140z" />
    <glyph glyph-name="ff" unicode="&#xfb00;" horiz-adv-x="460" 
d="M276 0v440h-31v96h31v39c0 92 51 132 135 132c20 0 32 -1 44 -4v-98c-5 1 -7 1 -14 1c-29 0 -47 -16 -47 -49v-21h61v-96h-61v-440h-118zM46 0v440h-33v96h33v39c0 92 51 132 135 132c20 0 32 -1 44 -4v-98c-5 1 -7 1 -14 1c-29 0 -47 -16 -47 -49v-21h59v-96h-59v-440
h-118z" />
    <glyph glyph-name="ffl" unicode="&#xfb04;" horiz-adv-x="646" 
d="M276 0v440h-31v96h31v39c0 92 51 132 135 132c20 0 32 -1 44 -4v-98c-5 1 -7 1 -14 1c-29 0 -47 -16 -47 -49v-21h61v-96h-61v-440h-118zM46 0v440h-33v96h33v39c0 92 51 132 135 132c20 0 32 -1 44 -4v-98c-5 1 -7 1 -14 1c-29 0 -47 -16 -47 -49v-21h59v-96h-59v-440
h-118zM494 0v705h118v-705h-118z" />
    <glyph glyph-name="ffi" unicode="&#xfb03;" horiz-adv-x="646" 
d="M493 587v118h120v-118h-120zM276 0v440h-31v96h31v39c0 92 51 132 135 132c20 0 32 -1 44 -4v-98c-5 1 -7 1 -14 1c-29 0 -47 -16 -47 -49v-21h61v-96h-61v-440h-118zM46 0v440h-33v96h33v39c0 92 51 132 135 132c20 0 32 -1 44 -4v-98c-5 1 -7 1 -14 1
c-29 0 -47 -16 -47 -49v-21h59v-96h-59v-440h-118zM494 0v536h118v-536h-118z" />
    <glyph glyph-name="nbspace" unicode="&#xa0;" horiz-adv-x="159" 
 />
    <glyph glyph-name="Agrave" unicode="&#xc0;" horiz-adv-x="398" 
d="M1 0l133 702h130l133 -702h-122l-23 139h-111l-22 -139h-118zM159 249h75l-37 231zM179 741l-115 125l89 47l96 -172h-70z" />
    <glyph glyph-name="Atilde" unicode="&#xc3;" horiz-adv-x="398" 
d="M1 0l133 702h130l133 -702h-122l-23 139h-111l-22 -139h-118zM159 249h75l-37 231zM256 733c-31 0 -50 13 -67 25c-15 10 -28 20 -46 20c-17 0 -24 -15 -33 -49l-63 18c8 80 52 110 86 110c31 0 50 -13 67 -25c15 -10 28 -20 46 -20c17 0 24 15 33 49l63 -18
c-8 -80 -52 -110 -86 -110z" />
    <glyph glyph-name="Otilde" unicode="&#xd5;" horiz-adv-x="420" 
d="M210 -10c-111 0 -186 111 -186 342v36c0 231 75 342 186 342s186 -111 186 -342v-36c0 -231 -75 -342 -186 -342zM210 102c37 0 62 50 62 230v36c0 180 -25 230 -62 230s-62 -50 -62 -230v-36c0 -180 25 -230 62 -230zM268 733c-31 0 -50 13 -67 25c-15 10 -28 20 -46 20
c-17 0 -24 -15 -33 -49l-63 18c8 80 52 110 86 110c31 0 50 -13 67 -25c15 -10 28 -20 46 -20c17 0 24 15 33 49l63 -18c-8 -80 -52 -110 -86 -110z" />
    <glyph glyph-name="ydieresis" unicode="&#xff;" horiz-adv-x="362" 
d="M88 -130l34 149l-111 517h117l51 -316l56 316h116l-148 -666h-115zM209 596v105h106v-105h-106zM43 596v105h106v-105h-106z" />
    <glyph glyph-name="Ydieresis" unicode="&#x178;" horiz-adv-x="382" 
d="M130 0v276l-130 424h126l66 -262l67 262h123l-130 -424v-276h-122zM221 747v105h106v-105h-106zM55 747v105h106v-105h-106z" />
    <glyph glyph-name="Acircumflex" unicode="&#xc2;" horiz-adv-x="398" 
d="M1 0l133 702h130l133 -702h-122l-23 139h-111l-22 -139h-118zM159 249h75l-37 231zM77 741l73 157h97l74 -157h-72l-51 106l-51 -106h-70z" />
    <glyph glyph-name="Ecircumflex" unicode="&#xca;" horiz-adv-x="330" 
d="M36 0v700h268v-116h-146v-174h129v-116h-129v-178h149v-116h-271zM45 741l73 157h97l74 -157h-72l-51 106l-51 -106h-70z" />
    <glyph glyph-name="Aacute" unicode="&#xc1;" horiz-adv-x="398" 
d="M1 0l133 702h130l133 -702h-122l-23 139h-111l-22 -139h-118zM159 249h75l-37 231zM142 741l96 172l89 -47l-115 -125h-70z" />
    <glyph glyph-name="Edieresis" unicode="&#xcb;" horiz-adv-x="330" 
d="M36 0v700h268v-116h-146v-174h129v-116h-129v-178h149v-116h-271zM201 747v105h106v-105h-106zM35 747v105h106v-105h-106z" />
    <glyph glyph-name="Egrave" unicode="&#xc8;" horiz-adv-x="330" 
d="M36 0v700h268v-116h-146v-174h129v-116h-129v-178h149v-116h-271zM150 741l-115 125l89 47l96 -172h-70z" />
    <glyph glyph-name="Iacute" unicode="&#xcd;" horiz-adv-x="198" 
d="M38 0v700h122v-700h-122zM55 741l96 172l89 -47l-115 -125h-70z" />
    <glyph glyph-name="Icircumflex" unicode="&#xce;" horiz-adv-x="198" 
d="M38 0v700h122v-700h-122zM-23 741l73 157h97l74 -157h-72l-51 106l-51 -106h-70z" />
    <glyph glyph-name="Idieresis" unicode="&#xcf;" horiz-adv-x="198" 
d="M38 0v700h122v-700h-122zM129 747v105h106v-105h-106zM-37 747v105h106v-105h-106z" />
    <glyph glyph-name="Igrave" unicode="&#xcc;" horiz-adv-x="198" 
d="M38 0v700h122v-700h-122zM66 741l-115 125l89 47l96 -172h-70z" />
    <glyph glyph-name="Oacute" unicode="&#xd3;" horiz-adv-x="420" 
d="M210 -10c-111 0 -186 111 -186 342v36c0 231 75 342 186 342s186 -111 186 -342v-36c0 -231 -75 -342 -186 -342zM210 102c37 0 62 50 62 230v36c0 180 -25 230 -62 230s-62 -50 -62 -230v-36c0 -180 25 -230 62 -230zM152 741l96 172l89 -47l-115 -125h-70z" />
    <glyph glyph-name="Ocircumflex" unicode="&#xd4;" horiz-adv-x="420" 
d="M210 -10c-111 0 -186 111 -186 342v36c0 231 75 342 186 342s186 -111 186 -342v-36c0 -231 -75 -342 -186 -342zM210 102c37 0 62 50 62 230v36c0 180 -25 230 -62 230s-62 -50 -62 -230v-36c0 -180 25 -230 62 -230zM88 741l73 157h97l74 -157h-72l-51 106l-51 -106
h-70z" />
    <glyph glyph-name="apple" unicode="&#xf8ff;" horiz-adv-x="967" 
d="M868 0h-767v750h767v-750zM859 -104h-6l-3 20l-10 -21h-2l-10 21l-3 -20h-6l6 34h1l13 -26l13 26h1zM806 -87c0 -10 -7 -18 -17 -18s-17 8 -17 17c0 10 7 18 18 18c9 0 16 -8 16 -17zM758 -96l-1 -6c-2 -2 -6 -3 -10 -3c-11 0 -18 7 -18 17s8 18 18 18c4 0 8 -1 11 -3
l-2 -5c-2 2 -6 3 -9 3c-6 0 -12 -5 -12 -12c0 -9 6 -13 13 -13c3 0 7 2 10 4zM702 -71l-13 -19v-14h-6v14l-14 19l6 1l11 -15l9 14h7zM656 -104h-6v15h-16v-15h-6v33h6v-13h16v13h6v-33zM612 -82c0 -8 -7 -12 -17 -12v-10h-6v33c18 2 23 -4 23 -11zM576 -104h-6l-4 8h-14
l-3 -8h-6l15 34h2zM534 -104h-7l-8 11h-5v-11h-6v33c18 2 23 -4 23 -10c0 -5 -3 -8 -7 -10zM491 -101c-3 -2 -8 -4 -13 -4c-10 0 -18 7 -18 17s8 18 19 18c4 0 9 -2 12 -4l-2 -5c-2 2 -7 4 -11 4c-7 0 -12 -5 -12 -13c0 -7 6 -12 13 -12c2 0 4 1 6 2v7h-9v5h15v-15zM447 -87
c0 -10 -7 -18 -17 -18s-17 8 -17 17c0 10 7 18 18 18c9 0 16 -8 16 -17zM400 -82c0 -8 -7 -12 -17 -12v-10h-6v33c18 2 23 -4 23 -11zM364 -71l-13 -19v-14h-6v14l-14 19l6 1l11 -15l9 14h7zM323 -71v-5h-12v-28h-6v28h-12v5h30zM267 -71l-12 -34h-1l-11 23l-10 -23h-1
l-12 34l6 1l7 -23l10 23h1l10 -23l7 22h6zM211 -71l-12 -34h-1l-11 23l-10 -23h-1l-12 34l6 1l7 -23l10 23h1l10 -23l7 22h6zM155 -71l-12 -34h-1l-11 23l-10 -23h-1l-12 34l6 1l7 -23l10 23h1l10 -23l7 22h6zM716 -101c0 -2 -1 -4 -4 -4c-2 0 -4 2 -4 4s1 4 4 4
c2 0 4 -2 4 -4zM284 -101c0 -2 -1 -4 -4 -4c-2 0 -4 2 -4 4s1 4 4 4c2 0 4 -2 4 -4zM559 686c0 0 0 8 -1 12c-2 -1 -8 -1 -17 -1c-10 0 -15 0 -18 1c0 -4 -1 -12 -1 -12h2s4 9 10 9c3 0 3 -1 3 -3v-23c0 -6 -5 -5 -5 -5v-2h17v2s-5 -1 -5 5v23c0 2 1 3 3 3c7 0 10 -9 10 -9
h2zM504 662v2s-6 -1 -6 5v21c0 6 6 5 6 5v2h-18v-1v-1s5 1 5 -5v-9h-17v9c0 6 5 5 5 5v1v1h-17v-2s5 1 5 -5v-21c0 -5 -5 -5 -5 -5v-2h17v2s-5 0 -5 5v10h17v-10c0 -6 -5 -5 -5 -5v-2h18zM439 664c0 0 -5 -1 -5 5v21c0 6 5 5 5 5v2h-29l-2 -10l2 -1s3 8 9 8h4c2 0 4 0 4 -3
v-10h-4c-6 0 -6 5 -6 5h-2v-13h2s0 6 6 6h4v-11c0 -3 -2 -3 -4 -3h-4c-7 0 -10 9 -10 9l-2 -1l2 -11h30v2zM827 618v6h-685v-6h685zM696 540c0 20 -18 38 -37 38c-9 0 -23 -6 -23 -22c0 -21 18 -38 37 -38c9 0 23 6 23 22zM589 537c0 7 -5 14 -14 17c3 2 5 5 5 9
c0 6 -6 15 -21 15c-8 0 -13 -5 -13 -11c0 -3 2 -6 5 -6s4 2 4 3c0 4 -3 3 -3 6s3 5 7 5c7 0 10 -5 10 -12c0 -4 -1 -5 -2 -6c-9 1 -16 0 -16 -6c0 -3 4 -6 8 -6c5 0 8 2 11 5c4 -3 6 -8 6 -15c0 -9 -5 -14 -12 -14s-12 4 -12 9c0 2 1 3 3 3c1 0 2 -2 5 -2c2 0 4 2 4 5
s-3 5 -7 5c-5 0 -9 -5 -9 -10c0 -7 7 -13 16 -13c17 0 25 9 25 19zM295 537c0 7 -5 14 -14 17c3 2 5 5 5 9c0 6 -6 15 -21 15c-8 0 -13 -5 -13 -11c0 -3 2 -6 5 -6s4 2 4 3c0 4 -3 3 -3 6s3 5 7 5c7 0 10 -5 10 -12c0 -4 -1 -5 -2 -6c-9 1 -16 0 -16 -6c0 -3 4 -6 8 -6
c5 0 8 2 11 5c4 -3 6 -8 6 -15c0 -9 -5 -14 -12 -14s-12 4 -12 9c0 2 1 3 3 3c1 0 2 -2 5 -2c2 0 4 2 4 5s-3 5 -7 5c-5 0 -9 -5 -9 -10c0 -7 7 -13 16 -13c17 0 25 9 25 19zM820 522c0 0 -8 -1 -10 8l-7 35c-2 9 7 8 7 8l-1 3h-28l1 -3s7 1 9 -8l3 -15h-24l-3 15
c-2 9 7 8 7 8l-1 3h-29l1 -3s8 1 10 -8l7 -35c2 -9 -7 -8 -7 -8l1 -3h29l-1 3s-8 -1 -10 8l-3 16h24l3 -16c2 -9 -7 -8 -7 -8l1 -3h29zM498 519l-1 3s-8 -1 -10 8l-7 35c-2 9 7 8 7 8l-1 3h-45c1 -4 0 -17 0 -17h4s-1 13 13 13h4c3 0 5 -1 6 -6l3 -16h-4c-9 0 -12 9 -12 9
h-3l5 -23h3s-1 11 8 11h4l3 -17c2 -9 -7 -8 -7 -8l1 -3h29zM202 522c0 0 -8 -1 -10 8l-7 35c-2 9 7 8 7 8l-1 3h-27s-20 -5 -20 -15c0 -8 9 -14 19 -15l-9 -16c-5 -9 -14 -8 -14 -8l1 -3h19l12 23c1 2 3 3 5 3l3 -15c2 -9 -7 -8 -7 -8l1 -3h29zM400 521c0 3 -4 8 -13 9
c-10 7 2 48 -29 48c-7 0 -13 -6 -13 -10c0 -3 2 -5 5 -5c4 0 4 2 4 6c0 3 1 6 5 6c13 0 4 -30 21 -45c-14 0 -16 -13 -23 -13c-3 0 -5 2 -5 4c0 3 2 3 2 5c0 3 -2 5 -5 5c-4 0 -5 -4 -5 -7c0 -6 8 -12 15 -12c18 0 14 13 25 13c2 -4 7 -7 12 -7c2 0 4 1 4 3zM827 475v6h-685
v-6h685zM827 378v62h-147v-62h36v28h11v-65h-14v-33h81v33h-14v65h11v-28h36zM648 406v34h-81v-34h11l-15 -23l-15 23h10v34h-62v-34h12l37 -46v-19h-14v-33h81v33h-15v20l37 45h14zM458 308v33h-14v65h14v34h-96c-29 0 -47 -18 -47 -40c0 -23 18 -40 47 -40h30v-19h-15v-33
h81zM283 308v33h-14v65h14v34h-141v-62h41v28h33v-20h-24v-24h24v-21h-33v28h-41v-61h141zM827 271v6h-685v-6h685zM728 192c0 20 -18 38 -37 38c-9 0 -23 -6 -23 -22c0 -21 18 -38 37 -38c9 0 23 6 23 22zM203 217c-4 7 -8 13 -18 13c-9 0 -15 -7 -14 -23
c-4 13 -10 23 -21 23c-6 0 -12 -4 -12 -12l3 -1c0 4 3 6 8 6c13 0 20 -17 24 -33c4 -17 -6 -15 -6 -15l1 -4h28l-1 4s-7 -2 -10 9c-3 10 -5 20 -5 25c0 8 3 13 9 13s9 -4 12 -7zM823 171l-1 3s-8 -1 -10 8l-7 35c-2 9 7 8 7 8l-1 3h-45c1 -4 0 -17 0 -17h4s-1 13 13 13h4
c3 0 5 -1 6 -6l3 -16h-4c-9 0 -12 9 -12 9h-3l5 -23h3s-1 11 8 11h4l3 -17c2 -9 -7 -8 -7 -8l1 -3h29zM621 225l-1 3h-29l1 -3s8 1 10 -9l5 -21c3 -13 3 -20 -11 -20c-11 0 -17 10 -20 22l-4 19c-2 11 7 9 7 9v3h-24l1 -3s9 1 11 -9l4 -19c2 -11 10 -27 28 -27
c23 0 21 14 19 24l-5 22c-3 11 8 9 8 9zM522 174c0 0 -6 0 -9 10l-7 32c-2 10 8 9 8 9l-1 3h-14l-29 -42l-5 30c-2 9 7 9 7 9l-1 3h-21l1 -3s7 0 9 -9l8 -45l3 -1l30 44l6 -30c2 -11 -6 -10 -6 -10l1 -3h21zM414 171l-1 4s-7 -2 -10 9l-8 31c-2 6 0 9 8 10l-1 3h-30
c-12 0 -25 -7 -25 -22c0 -21 18 -35 35 -35h32zM306 174c0 0 -8 -1 -10 8l-7 35c-2 9 7 8 7 8l-1 3h-27s-20 -5 -20 -15c0 -8 9 -14 19 -15l-9 -16c-5 -9 -14 -8 -14 -8l1 -3h19l12 23c1 2 3 3 5 3l3 -15c2 -9 -7 -8 -7 -8l1 -3h29zM827 127v6h-685v-6h685zM694 46v2
s-6 1 -6 5v20c0 3 6 6 6 6v2h-10l-24 -26v18c0 5 6 6 6 6v2h-15v-2s6 -1 6 -6v-28h3l25 28v-20c0 -4 -5 -5 -5 -5v-2h14zM633 48c0 0 -5 -1 -5 5v21c0 6 5 5 5 5v2h-29l-2 -10l2 -1s3 8 9 8h4c2 0 4 0 4 -3v-10h-4c-6 0 -6 5 -6 5h-2v-13h2s0 6 6 6h4v-11c0 -3 -2 -3 -4 -3
h-4c-7 0 -10 9 -10 9l-2 -1l2 -11h30v2zM583 81h-15v-2s4 -1 2 -5l-9 -19l-5 10l4 8c2 4 6 6 6 6v2h-26l1 -2s3 0 7 -6l3 -5l-7 -13l-8 18c-2 5 2 6 2 6v2h-13v-2s4 -1 6 -6l13 -27h1s1 -1 1 0l8 16l9 -16h1l12 27c3 6 7 6 7 6v2zM480 79v2h-15v-2s4 0 1 -5l-6 -9l-6 9
c-3 5 3 5 3 5v2h-15v-2s5 0 8 -5l8 -12v-8c0 -6 -5 -6 -5 -6v-2h17v2s-5 0 -5 6v8l8 12c3 5 7 5 7 5zM425 64c0 10 -7 18 -20 18s-20 -8 -20 -18s7 -19 20 -19s20 9 20 19zM364 46v2s-5 0 -5 5v20c0 6 5 6 5 6v2h-18s-13 -4 -13 -9c0 -4 4 -7 9 -9l-7 -10c-4 -5 -8 -5 -8 -5
v-2h11l7 12c3 4 3 4 7 4v-9c0 -5 -5 -5 -5 -5v-2h17zM309 46v2s-6 1 -6 6v20c0 5 6 5 6 5v2h-18v-2s6 0 6 -5v-9c-2 0 -3 1 -4 2l-8 8c-3 3 1 4 1 4v2h-14v-2s5 -1 8 -4l10 -9l-13 -13c-2 -2 -7 -5 -7 -5v-2h17v2s-6 0 -2 5l8 8c1 1 2 2 4 2v-9c0 -6 -6 -6 -6 -6v-2h18z
M606 -83c0 5 -3 8 -11 7v-13c6 0 11 1 11 6zM525 -82c0 5 -5 7 -11 6v-12c9 -1 11 3 11 6zM394 -83c0 5 -3 8 -11 7v-13c6 0 11 2 11 6zM564 -92l-5 12l-5 -12h10zM800 -88c0 9 -5 13 -11 13s-11 -5 -11 -12c0 -8 5 -13 11 -13s11 5 11 12zM441 -88c0 9 -5 13 -11 13
s-11 -5 -11 -12c0 -8 5 -13 11 -13s11 5 11 12zM176 548h-5c-11 0 -15 9 -15 15s2 9 8 9s8 -1 9 -5zM566 553c-2 -3 -5 -4 -7 -4c-3 0 -4 1 -4 2c0 2 1 3 4 3c2 0 5 0 7 -1zM272 553c-2 -3 -5 -4 -7 -4c-3 0 -4 1 -4 2c0 2 1 3 4 3c2 0 5 0 7 -1zM684 535
c0 -9 -3 -13 -11 -13c-12 0 -25 18 -25 38c0 9 4 14 11 14c12 0 25 -18 25 -39zM392 384h-11c-9 0 -13 5 -13 11s4 11 13 11h11v-22zM280 200h-5c-11 0 -15 9 -15 15s2 9 8 9s8 -1 9 -5zM716 187c0 -9 -3 -13 -11 -13c-12 0 -25 18 -25 38c0 9 4 14 11 14
c12 0 25 -18 25 -39zM393 182c0 -6 -1 -7 -4 -7h-5c-15 0 -26 16 -26 32c0 11 5 17 14 17h6c4 -1 4 -1 6 -7zM553 79c4 0 3 -3 0 -9c-4 7 -2 9 0 9zM352 64h-3c-4 0 -8 2 -8 8c0 3 2 6 7 6c3 0 4 -1 4 -4v-10zM417 64c0 -9 -3 -17 -12 -17c-8 0 -12 8 -12 17s4 16 12 16
c9 0 12 -7 12 -16z" />
    <glyph glyph-name="Ograve" unicode="&#xd2;" horiz-adv-x="420" 
d="M210 -10c-111 0 -186 111 -186 342v36c0 231 75 342 186 342s186 -111 186 -342v-36c0 -231 -75 -342 -186 -342zM210 102c37 0 62 50 62 230v36c0 180 -25 230 -62 230s-62 -50 -62 -230v-36c0 -180 25 -230 62 -230zM178 741l-115 125l89 47l96 -172h-70z" />
    <glyph glyph-name="Uacute" unicode="&#xda;" horiz-adv-x="416" 
d="M208 -9c-100 0 -174 66 -174 213v496h121v-508c0 -63 22 -88 53 -88s53 25 53 88v508h121v-496c0 -147 -74 -213 -174 -213zM173 741l96 172l89 -47l-115 -125h-70z" />
    <glyph glyph-name="Ucircumflex" unicode="&#xdb;" horiz-adv-x="416" 
d="M208 -9c-100 0 -174 66 -174 213v496h121v-508c0 -63 22 -88 53 -88s53 25 53 88v508h121v-496c0 -147 -74 -213 -174 -213zM86 741l73 157h97l74 -157h-72l-51 106l-51 -106h-70z" />
    <glyph glyph-name="Ugrave" unicode="&#xd9;" horiz-adv-x="416" 
d="M208 -9c-100 0 -174 66 -174 213v496h121v-508c0 -63 22 -88 53 -88s53 25 53 88v508h121v-496c0 -147 -74 -213 -174 -213zM171 741l-115 125l89 47l96 -172h-70z" />
    <glyph glyph-name="Euro" unicode="&#x20ac;" horiz-adv-x="379" 
d="M266 -10c-93 0 -168 71 -190 236h-61v90h54v21v26v25h-54v90h62c24 163 103 232 197 232c34 0 54 -4 80 -16v-126c-25 15 -45 23 -68 23c-40 0 -71 -28 -85 -113h100v-90h-108v-24v-28v-20h108v-90h-102c14 -93 46 -117 89 -117c19 0 43 7 68 22v-120
c-28 -16 -55 -21 -90 -21z" />
    </font>
</defs>
</svg>
